返回顶部
  • 发帖数1561
  • 粉丝19

此人很懒,什么也没有留下

  • 最佳新人

  • 活跃会员

    经常参与各类话题的讨论,发帖内容较有主见
  • 热心会员

    经常帮助其他会员答疑
  • 灌水之王

    经常在论坛发帖,且发帖量较大
  • 社区劳模

    长期对论坛的繁荣而不断努力,或发帖主题数500以上
  • 终身成就

    为论坛做出突出贡献的会员
  • QQ绑定

    QQ绑定会员
  • 明星会员

    在论坛有很高知名度会员
  • 沙发达人

    抢沙总数达到100
  • 光悦帅哥

    上传了自己真人秀照片就可以获得勋章哦~
  • 实名认证

    通过身份证实名认证
  • 爆料达人

    发帖爆料达人
开启左侧

[爱情] [2021][有一点动心][WEB-MKV/10.91GB][国语音轨][4K-2160P]

  [复制链接]
dolgm 高级首粉 显示全部楼层 发表于 4 天前 |阅读模式 打印 上一主题 下一主题
1a3713f76839846066ba41631ce73368.jpeg

◎译  名 有一点动心 / 相亲大作战
◎年  代 2021
◎产  地 中国大陆
◎类  别 爱情
◎语  言 汉语普通话
◎上映日期 2021-06-03(中国大陆)
◎IMDb链接 https://www.imdb.com/title/tt13556244/
◎豆瓣评分 4.5/10 (2732人评价)
◎豆瓣链接 https://movie.douban.com/subject/34454693/
◎片  长 94分钟
◎导  演 陈嘉上 Gordon Chan (id:1274245)
      朱雪菲 Xuefei Zhu (id:1439808)
◎编  剧 陈嘉上 Gordon Chan (id:1274245)
      吴晓洁 Xiaojie Wu (id:1426717)
      朱雪菲 Xuefei Zhu (id:1439808)
      林静璇 Jingxuan Lin (id:1439830)
◎演  员 言承旭 Jerry Yan (id:1014501)
      任素汐 Suxi Ren (id:1362973)
      柳岩 Yan Liu (id:1312846)
      戚薇 Stephy Qi (id:1313916)
      连凯 Andrew Lin (id:1122837)
      汤加文 Carmen Tong (id:1358039)
      曹扬 Yang Cao (id:1339294)
      李欣烨 Xinye Li (id:1356952)
      那威 Wei Na (id:1275600)
      李勤勤 Qinqin Li (id:1274639)
      王一宁 Yining Wang (id:1449838)
      张琛 Chen Zhang (id:1394958)
      张信哲 Jeff Chang (id:1198234)
      周丹丹 Dandan Zhou (id:1455707)

◎标  签 言承旭 / 任素汐 / 爱情 / 张信哲 / 喜剧 / 2021 / 中国大陆 / 都市

◎简  介
  周启文(言承旭 饰)创立的游戏公司因旗下员工直播的“渣男”言论引起全网声讨,被迫宣告破产,他带着兄弟们去找“始作俑者”相亲APP员工讨个说法。虽然打着成为对方客户,搅黄她们生意的坏主意,但周启文却被对方女老板陈然(任素汐 饰)安排得明明白白。在不断的相亲过程中,二人逐渐卸下了对彼此的敌意和伪装,互相的了解让二人间萌生情愫。在这越来越不敢爱的时代,周启文和陈然是会就此错过,还是能抓住命运不顾一切付出真心?
General
Unique ID : 276945693605335420588691639888020349360 (0xD059CCE8DF807900C5CBC3453D21A1B0)
Complete name : Tempting.Hearts.2021.WEB-DL.4K.H265.AAC.5.1-10015@SHOUFAZJ.COM.mkv
Format : Matroska
Format version : Version 4
File size : 10.9 GiB
Duration : 1 h 34 min
Overall bit rate : 16.5 Mb/s
Encoded date : UTC 2021-07-19 08:36:01
Writing application : mkvmerge v58.0.0 ('Supper's Ready') 64-bit
Writing library : libebml v1.4.2 + libmatroska v1.6.4

Video
ID : 1
Format : HEVC
Format/Info : High Efficiency Video Coding
Format profile : Main@L5@Main
Codec ID : V_MPEGH/ISO/HEVC
Duration : 1 h 34 min
Bit rate : 16.2 Mb/s
Width : 3 840 pixels
Height : 1 608 pixels
Display aspect ratio : 2.40:1
Frame rate mode : Constant
Frame rate : 24.000 FPS
Color space : YUV
Chroma subsampling : 4:2:0
Bit depth : 8 bits
Bits/(Pixel*Frame) : 0.109
Stream size : 10.7 GiB (98%)
Default : Yes
Forced : No

Audio #1
ID : 2
Format : AAC LC SBR
Format/Info : Advanced Audio Codec Low Complexity with Spectral Band Replication
Commercial name : HE-AAC
Format settings : NBC
Codec ID : A_AAC-5
Duration : 1 h 34 min
Bit rate : 132 kb/s
Channel(s) : 6 channels
Channel layout : C L R Ls Rs LFE
Sampling rate : 48.0 kHz
Frame rate : 23.438 FPS (2048 SPF)
Compression mode : Lossy
Stream size : 88.8 MiB (1%)
Language : Chinese
Default : Yes
Forced : No

Audio #2
ID : 3
Format : AAC LC
Format/Info : Advanced Audio Codec Low Complexity
Codec ID : A_AAC-2
Duration : 1 h 34 min
Bit rate : 192 kb/s
Channel(s) : 2 channels
Channel layout : L R
Sampling rate : 44.1 kHz
Frame rate : 43.066 FPS (1024 SPF)
Compression mode : Lossy
Stream size : 129 MiB (1%)
Language : Chinese
Default : No
Forced : No



游客,如果您要查看本帖隐藏内容请回复

精彩评论26

haibo1hao 首发之星 显示全部楼层 发表于 4 天前
楼主辛苦了,谢谢首发之家!!
kankan200960 初来首发 显示全部楼层 发表于 4 天前
看看能不能下载啊。。
xinmo2003 初来首发 显示全部楼层 发表于 4 天前
RE: [2021][有一点动心][WEB-MKV/10.91GB][国语音轨][4K-2160P] [[url=]修改[/url]]
哥丶心狠痛 高级首粉 显示全部楼层 发表于 4 天前
楼主辛苦了,谢谢首发之家!!
yerme 高级首粉 显示全部楼层 发表于 4 天前
多谢楼主
很好的电影
redchocolate 首发之星 显示全部楼层 发表于 4 天前
楼主辛苦了,谢谢首发之家!!
Destroyer 首发新人 显示全部楼层 发表于 4 天前
非常感谢分享
Y8080 首发新人 显示全部楼层 发表于 4 天前
辛苦楼主,多谢多谢
iyo五花肉 初来首发 显示全部楼层 发表于 4 天前
学习一下!学习一下!学习一下!学习一下!学习一下!学习一下!
您需要登录后才可以回帖 登录 | 立即注册 用百度帐号登录

本版积分规则

首发之家社区成立于2011年3月,内容涉及3C家电、数码生活智能电视,股票软件,4K,体育,软件,教育,游戏等资源指标公式论坛。
  • 官方手机版

  • 抖音号

  • 商务合作