返回顶部
  • 发帖数1561
  • 粉丝19

此人很懒,什么也没有留下

  • 最佳新人

  • 活跃会员

    经常参与各类话题的讨论,发帖内容较有主见
  • 热心会员

    经常帮助其他会员答疑
  • 灌水之王

    经常在论坛发帖,且发帖量较大
  • 社区劳模

    长期对论坛的繁荣而不断努力,或发帖主题数500以上
  • 终身成就

    为论坛做出突出贡献的会员
  • QQ绑定

    QQ绑定会员
  • 明星会员

    在论坛有很高知名度会员
  • 沙发达人

    抢沙总数达到100
  • 光悦帅哥

    上传了自己真人秀照片就可以获得勋章哦~
  • 实名认证

    通过身份证实名认证
  • 爆料达人

    发帖爆料达人
开启左侧

[悬疑] [2014][暴疯语][WEB-MP4/8.35GB][4K-2160P]

[复制链接]
dolgm 高级首粉 显示全部楼层 发表于 4 天前 |阅读模式 打印 上一主题 下一主题
b9204ddaac6ac7e35d670205231af1c9.jpeg

◎译  名 暴疯语 / Insanity
◎年  代 2014
◎产  地 中国大陆 / 中国香港
◎类  别 悬疑 / 惊悚
◎语  言 汉语普通话 / 粤语
◎上映日期 2015-04-03(中国大陆) / 2014-11-19(台北金马影展)
◎IMDb链接 https://www.imdb.com/title/tt4305562/
◎豆瓣评分 5.9/10 (38713人评价)
◎豆瓣链接 https://movie.douban.com/subject/25742299/
◎片  长 99分钟
◎导  演 李光耀 David Lee Kwong-Yiu (id:1335186)
◎编  剧 李光耀 David Lee Kwong-Yiu (id:1335186)
      吕冠南 Koon-Nam Lui (id:1313441)
      尔冬升 Tung-shing Yee (id:1274289)
◎演  员 刘青云 Sean Lau (id:1007251)
      黄晓明 Xiaoming Huang (id:1041404)
      方中信 Alex Fong (id:1033102)
      薛凯琪 Fiona Sit (id:1023827)
      鲍起静 Hee Ching Paw (id:1274229)
      叶璇 Michelle Ye (id:1005537)
      毛俊辉 Fredric Mao Chun-fai (id:1313966)
      孙佳君 Paulyn Sun (id:1050664)
      冼色丽 Seli Xian (id:1275651)
      卫诗雅 Michelle Wai (id:1313357)
      李国麟 Kwok-Lun Lee (id:1274575)
      伍国明 Kwok-ming Ng (id:1359527)
      王宜华 Chloe Wong (id:1380813)
      陈郁宪 Donovan Chan (id:1417027)
      黄焯言 Matthew Wong (id:1383010)
      麦洛新 Lok San Mak (id:1373029)
      林炳坤 Bingkun Lin (id:1350348)
      钱荣威 Wing-Wai Chin (id:1418361)
      陈志英 Chi Ying Chan (id:1326652)
      张世宏 Silver Cheung (id:1318916)
      黄国雄 Samuel Wong (id:1426248)

◎标  签 悬疑 / 香港 / 刘青云 / 香港电影 / 心理 / 剧情 / 2015 / 尔冬升

◎简  介
  失业在家的范国生(刘青云 饰)残忍地杀害了妻子(叶璇 饰),这件事震惊了全香港,而他随后被诊断为有精神疾病而逃脱了法律制裁。医学才俊周明杰(黄晓明 饰)主动承担为范国生的主治医生,极力帮助其治疗。三年后,周明杰力保范国生出院,重回社会,这遭到了医学界的一致反对,但是周却执意坚持。可是新的毒贩凶杀案又接踵而来,警方又再次把目标锁定为范国生,与此同时,周明杰的未婚妻宝儿(薛凯琪 饰)遭遇了死亡威胁,强大的压力让周明杰无法喘息。如何拯救爱人,拯救事业?真相到底是什么?精神病人究竟能否被治愈?新一轮的自我救赎悄然开始。

◎获奖情况 (共5项)
  第51届台北金马影展 (2014)
  金马奖 最佳女配角(提名)
   └──鲍起静 (id:1274229)

  第34届香港电影金像奖 (2015)
  最佳男主角(提名)
   └──刘青云 (id:1007251)
  最佳女配角(提名)
   └──鲍起静 (id:1274229)
  最佳原创电影歌曲(提名)
  新晋导演
   └──李光耀 (id:1335186)
General
Complete name : 暴疯语.Insanity.2014.2160p.WEB-DL.H265.AAC-10003@SHOUFAZJ.COM.mp4
Format : MPEG-4
Format profile : Base Media
Codec ID : isom (isom/iso2/mp41)
File size : 8.35 GiB
Duration : 1 h 38 min
Overall bit rate : 12.2 Mb/s
Writing application : Lavf58.32.104

Video
ID : 1
Format : HEVC
Format/Info : High Efficiency Video Coding
Format profile : Main@L5@High
Codec ID : hev1
Codec ID/Info : High Efficiency Video Coding
Duration : 1 h 38 min
Bit rate : 12.0 Mb/s
Width : 3 840 pixels
Height : 1 592 pixels
Display aspect ratio : 2.40:1
Frame rate mode : Constant
Frame rate : 24.000 FPS
Color space : YUV
Chroma subsampling : 4:2:0
Bit depth : 8 bits
Bits/(Pixel*Frame) : 0.082
Stream size : 8.21 GiB (98%)
Codec configuration box : hvcC

Audio
ID : 2
Format : AAC LC
Format/Info : Advanced Audio Codec Low Complexity
Codec ID : mp4a-40-2
Duration : 1 h 38 min
Bit rate mode : Constant
Bit rate : 192 kb/s
Channel(s) : 2 channels
Channel layout : L R
Sampling rate : 44.1 kHz
Frame rate : 43.066 FPS (1024 SPF)
Compression mode : Lossy
Stream size : 133 MiB (2%)
Default : Yes
Alternate group : 1



游客,如果您要查看本帖隐藏内容请回复

精彩评论33

haibo1hao 首发之星 显示全部楼层 发表于 4 天前
楼主辛苦了,谢谢首发之家!!
风中小子 捐助会员 显示全部楼层 发表于 4 天前
村村花木成畦手自栽 花木成畦手自栽 苦
哥丶心狠痛 高级首粉 显示全部楼层 发表于 4 天前
楼主辛苦了,谢谢首发之家!!
老衲就是用飘柔 首发熟人 显示全部楼层 发表于 4 天前
楼主辛苦了,谢谢首发之家!!
jonny.bf 初来首发 显示全部楼层 发表于 4 天前
楼主辛苦了,谢谢首发之家!!
zyj7028 高级首粉 显示全部楼层 发表于 4 天前
楼主辛苦了,谢谢首发之家!!
17896030003 首发熟人 显示全部楼层 发表于 4 天前
楼主辛苦了,谢谢首发之家!!
您需要登录后才可以回帖 登录 | 立即注册 用百度帐号登录

本版积分规则

首发之家社区成立于2011年3月,内容涉及3C家电、数码生活智能电视,股票软件,4K,体育,软件,教育,游戏等资源指标公式论坛。
  • 官方手机版

  • 抖音号

  • 商务合作