返回顶部
  • 发帖数1561
  • 粉丝19

此人很懒,什么也没有留下

  • 最佳新人

  • 活跃会员

    经常参与各类话题的讨论,发帖内容较有主见
  • 热心会员

    经常帮助其他会员答疑
  • 灌水之王

    经常在论坛发帖,且发帖量较大
  • 社区劳模

    长期对论坛的繁荣而不断努力,或发帖主题数500以上
  • 终身成就

    为论坛做出突出贡献的会员
  • QQ绑定

    QQ绑定会员
  • 明星会员

    在论坛有很高知名度会员
  • 沙发达人

    抢沙总数达到100
  • 光悦帅哥

    上传了自己真人秀照片就可以获得勋章哦~
  • 实名认证

    通过身份证实名认证
  • 爆料达人

    发帖爆料达人
开启左侧

[悬疑] [2019] [大陆] [悬疑] [纯净版] [BT下载][秦明·生死语者][WEB-MP4/8.54GB][4K-2160P]

[复制链接]
dolgm 高级首粉 显示全部楼层 发表于 4 天前 |阅读模式 打印 上一主题 下一主题
ff8d80f1d1176b5a9f60e61e105d3c57.jpeg

◎译  名 秦明·生死语者 / 生死语者·秦明 / Whisper of Silent Body
◎年  代 2019
◎产  地 中国大陆
◎类  别 悬疑 / 犯罪
◎语  言 汉语普通话
◎上映日期 2019-06-14(中国大陆)
◎IMDb链接 https://www.imdb.com/title/tt10423912/
◎豆瓣评分 4.1/10 (15157人评价)
◎豆瓣链接 https://movie.douban.com/subject/27090753/
◎片  长 104分钟
◎导  演 李海蜀 Haishu Li (id:1321164)
      黄彦威 Yanwei Huang (id:1321340)
◎编  剧 秦明 Ming Qin (id:1404646)
◎演  员 严屹宽 Yikuan Yan (id:1313653)
      代斯 Daisy (id:1361029)
      耿乐 Le Geng (id:1274576)
      郝劭文 Shaowen Hao (id:1314167)
      杜鹃 Juan Du (id:1323516)
      秦明 Ming Qin (id:1404646)
      陈欣淇 Julie Tan (id:1344518)
      吕东 Dong Lv (id:1410768)

◎标  签 法医 / 悬疑 / 犯罪 / 秦明 / 推理 / 中国大陆 / 2019 / 悬念

◎简  介
  影片根据法医秦明小说《尸语者》改编。讲述被誉为“鬼手佛心”的“尸语者”秦明(严屹宽饰)解剖过 1000 多具尸体,从未出错,因意外发现泡在福尔马林里6年的“无语体师”死于他杀,引发媒体质疑误判,被舆论推至风口浪尖之上。在尸体留下的线索指引下,秦明在实习助手嘉嘉(代斯饰)和刑警队长林涛(耿乐饰)的协助调查下发现了尘封 16 年的雪灾杀人案、误判 6 年的“无语体师”他杀案、悬而无果的 IT 男肺炸案背后的秘密。经历了这一系列变故的秦明最终成为了一名“为死者言,为生者权”的“生死语者”。
General
Complete name : 秦明·生死语者.Whisper.of.Silent.Body.2019.2160p.WEB-DL.H265.AAC-10003@SHOUFAZJ.COM.mp4
Format : MPEG-4
Format profile : Base Media
Codec ID : isom (isom/iso2/mp41)
File size : 8.54 GiB
Duration : 1 h 44 min
Overall bit rate : 11.7 Mb/s
Writing application : Lavf58.32.104

Video
ID : 1
Format : HEVC
Format/Info : High Efficiency Video Coding
Format profile : Main@L5@Main
Codec ID : hev1
Codec ID/Info : High Efficiency Video Coding
Duration : 1 h 44 min
Bit rate : 11.5 Mb/s
Width : 3 840 pixels
Height : 1 608 pixels
Display aspect ratio : 2.40:1
Frame rate mode : Constant
Frame rate : 24.000 FPS
Color space : YUV
Chroma subsampling : 4:2:0
Bit depth : 8 bits
Bits/(Pixel*Frame) : 0.078
Stream size : 8.40 GiB (98%)
Codec configuration box : hvcC

Audio
ID : 2
Format : AAC LC
Format/Info : Advanced Audio Codec Low Complexity
Codec ID : mp4a-40-2
Duration : 1 h 44 min
Bit rate mode : Constant
Bit rate : 192 kb/s
Channel(s) : 2 channels
Channel layout : L R
Sampling rate : 44.1 kHz
Frame rate : 43.066 FPS (1024 SPF)
Compression mode : Lossy
Stream size : 142 MiB (2%)
Default : Yes
Alternate group : 1



游客,如果您要查看本帖隐藏内容请回复

精彩评论13

haibo1hao 首发之星 显示全部楼层 发表于 4 天前
楼主辛苦了,谢谢首发之家!!
哥丶心狠痛 高级首粉 显示全部楼层 发表于 4 天前
楼主辛苦了,谢谢首发之家!!
jonny.bf 初来首发 显示全部楼层 发表于 4 天前
楼主辛苦了,谢谢首发之家!!
zyj7028 高级首粉 显示全部楼层 发表于 4 天前
楼主辛苦了,谢谢首发之家!!
一个人看电影 高级首粉 显示全部楼层 发表于 4 天前
多谢楼主分享
iyo五花肉 初来首发 显示全部楼层 发表于 4 天前
学习一下!学习一下!学习一下!学习一下!学习一下!学习一下!学习一下!
暴虐骑士 首发之星 显示全部楼层 发表于 4 天前
1111111111111111111111111
dalili 高级首粉 显示全部楼层 发表于 4 天前
楼主辛苦了,谢谢首发之家!!
creastinn 首发之星 显示全部楼层 发表于 3 天前
感谢楼主分享!非常感谢!!!
您需要登录后才可以回帖 登录 | 立即注册 用百度帐号登录

本版积分规则

首发之家社区成立于2011年3月,内容涉及3C家电、数码生活智能电视,股票软件,4K,体育,软件,教育,游戏等资源指标公式论坛。
  • 官方手机版

  • 抖音号

  • 商务合作