返回顶部
  • 发帖数1561
  • 粉丝19

此人很懒,什么也没有留下

  • 最佳新人

  • 活跃会员

    经常参与各类话题的讨论,发帖内容较有主见
  • 热心会员

    经常帮助其他会员答疑
  • 灌水之王

    经常在论坛发帖,且发帖量较大
  • 社区劳模

    长期对论坛的繁荣而不断努力,或发帖主题数500以上
  • 终身成就

    为论坛做出突出贡献的会员
  • QQ绑定

    QQ绑定会员
  • 明星会员

    在论坛有很高知名度会员
  • 沙发达人

    抢沙总数达到100
  • 光悦帅哥

    上传了自己真人秀照片就可以获得勋章哦~
  • 实名认证

    通过身份证实名认证
  • 爆料达人

    发帖爆料达人
开启左侧

[悬疑] [2019][你是凶手][WEB-MP4/9.55GB][4K-2160P]

[复制链接]
dolgm 高级首粉 显示全部楼层 发表于 前天 09:07 |阅读模式 打印 上一主题 下一主题
de5e080b89dab20875482d960567e7f8.jpeg

◎译  名 你是凶手 / 迷局英雄 / The Guilty Ones / The Convicted
◎年  代 2019
◎产  地 中国大陆
◎类  别 剧情 / 悬疑 / 犯罪
◎语  言 汉语普通话
◎上映日期 2019-11-22(中国大陆)
◎IMDb链接 https://www.imdb.com/title/tt10097530/
◎豆瓣评分 5.6/10 (38230人评价)
◎豆瓣链接 https://movie.douban.com/subject/26762744/
◎片  长 94分钟
◎导  演 王昱 Yu Wang (id:1300412)
◎编  剧 杜语 Yu Du (id:1357485)
◎演  员 王千源 Qianyuan Wang (id:1314827)
      宋佳 Jia Song (id:1042341)
      冯远征 Yuanzheng Feng (id:1043136)
      李九霄 Jiuxiao Li (id:1330992)
      何沄伟 Yunwei He (id:1313982)
      石凉 Liang Shi (id:1313009)
      张诣文含 Yiwenhan Zhang (id:1429675)
      韩璐 Liz Han (id:1453964)
      王昱 Yu Wang (id:1300412)
      杨江 Jiang Yang (id:1351381)
      赵楠 Nan Zhao (id:1325307)

◎标  签 犯罪 / 悬疑 / 推理 / 中国大陆 / 翻拍 / 剧情 / 2019 / 人性

◎简  介
  10年前,白兰(宋佳 饰)女儿铃铛被绑架并意外身亡,重案组警官陈浩(王千源 饰)许诺孩子母亲一定将凶手绳之以法。无奈经过漫长的追查却一无所获,陈浩带着遗憾离开警队。10年后,陈浩偶然间发现新线索,身患绝症的白兰重拾希望,决心为女寻凶,两人展开调查并发现了罪犯留下的蛛丝马迹。与此同时,李爱军(冯远征 饰)外孙女也遭人绑架,绑架手法跟10年前如出一辙,面对狡猾的嫌犯,陈浩和白兰能否抓到凶手,一偿夙愿…
General
Complete name : 你是凶手.The.Convicted.2019.2160p.WEB-DL.H265.AAC-10003@SHOUFAZJ.COM.mp4
Format : MPEG-4
Format profile : Base Media
Codec ID : isom (isom/iso2/mp41)
File size : 9.55 GiB
Duration : 1 h 33 min
Overall bit rate : 14.6 Mb/s
Writing application : Lavf58.32.104

Video
ID : 1
Format : HEVC
Format/Info : High Efficiency Video Coding
Format profile : Main@L5@Main
Codec ID : hev1
Codec ID/Info : High Efficiency Video Coding
Duration : 1 h 33 min
Bit rate : 14.4 Mb/s
Width : 3 840 pixels
Height : 1 608 pixels
Display aspect ratio : 2.40:1
Frame rate mode : Constant
Frame rate : 24.000 FPS
Color space : YUV
Chroma subsampling : 4:2:0
Bit depth : 8 bits
Bits/(Pixel*Frame) : 0.097
Stream size : 9.42 GiB (99%)
Codec configuration box : hvcC

Audio
ID : 2
Format : AAC LC
Format/Info : Advanced Audio Codec Low Complexity
Codec ID : mp4a-40-2
Duration : 1 h 33 min
Bit rate mode : Constant
Bit rate : 192 kb/s
Channel(s) : 2 channels
Channel layout : L R
Sampling rate : 44.1 kHz
Frame rate : 43.066 FPS (1024 SPF)
Compression mode : Lossy
Stream size : 127 MiB (1%)
Default : Yes
Alternate group : 1



游客,如果您要查看本帖隐藏内容请回复

精彩评论11

haibo1hao 首发之星 显示全部楼层 发表于 前天 09:17
楼主辛苦了,谢谢首发之家!!
哥丶心狠痛 高级首粉 显示全部楼层 发表于 前天 10:21
楼主辛苦了,谢谢首发之家!!
zyj7028 高级首粉 显示全部楼层 发表于 前天 14:51
楼主辛苦了,谢谢首发之家!!
lixu111111 首发熟人 显示全部楼层 发表于 前天 17:16
楼主辛苦了,谢谢首发之家!!
dalili 高级首粉 显示全部楼层 发表于 前天 23:03
楼主辛苦了,谢谢首发之家!!
狂风_Vlz56 首发新人 显示全部楼层 发表于 昨天 09:26
多谢楼主分享。。。。
沙庆 首发熟人 显示全部楼层 发表于 昨天 10:30
谢谢楼主分享。。。
赵夯 捐助会员 显示全部楼层 发表于 昨天 15:33
楼主辛苦了,感谢首发之荚丁!
大雨_V6GRN 首发熟人 显示全部楼层 发表于 昨天 22:12
wanglezhanghaomima不好办啊
您需要登录后才可以回帖 登录 | 立即注册 用百度帐号登录

本版积分规则

首发之家社区成立于2011年3月,内容涉及3C家电、数码生活智能电视,股票软件,4K,体育,软件,教育,游戏等资源指标公式论坛。
  • 官方手机版

  • 抖音号

  • 商务合作