返回顶部
  • 发帖数2736
  • 粉丝35

此人很懒,什么也没有留下

  • 最佳新人

  • 活跃会员

    经常参与各类话题的讨论,发帖内容较有主见
  • 热心会员

    经常帮助其他会员答疑
  • 灌水之王

    经常在论坛发帖,且发帖量较大
  • 社区劳模

    长期对论坛的繁荣而不断努力,或发帖主题数500以上
  • 终身成就

    为论坛做出突出贡献的会员
  • 明星会员

    在论坛有很高知名度会员
  • 爆料达人

    发帖爆料达人
开启左侧

[剧情] [2021][切尔诺贝利][BD-MKV/7.97GB][中文字幕][1080P]

[复制链接]
shizhijie 狂热首粉 显示全部楼层 发表于 2021-7-16 06:43:23 |阅读模式 打印 上一主题 下一主题
816f7fe7616c68160a4fe29ed01749ba.jpeg

◎译  名 切尔诺贝利 / Chernobyl / Chernobyl: Abyss / Chernobyl 1986 / Чернобыль: Бездна
◎片  名 Чернобыль
◎年  代 2021
◎产  地 俄罗斯
◎类  别 剧情 / 灾难
◎语  言 俄语
◎上映日期 2021-04-15(俄罗斯)
◎IMDb链接 https://www.imdb.com/title/tt10648714/
◎豆瓣评分 6.3/10 (1430人评价)
◎豆瓣链接 https://movie.douban.com/subject/34966152/
◎片  长 136分钟
◎导  演 丹尼拉·科兹洛夫斯基 Danila Kozlovsky (id:1213388)
◎编  剧 埃琳娜·伊万诺娃 Elena Ivanova (id:1458523)
      阿列克谢·卡扎科夫 Aleksey Kazakov (id:1458524)
◎演  员 丹尼拉·科兹洛夫斯基 Danila Kozlovsky (id:1213388)
      奥莎娜·阿金什那 Oksana Akinshina (id:1000376)
      菲利普·阿德耶夫 Fillip Adeyev (id:1247483)
      拉芙珊娜·库珂娃 Ravshana Kurkova (id:1406158)
      尼古拉·科扎克 Nikolay Kozak (id:1458525)
      伊戈尔·切涅维奇 Igor Chernevich (id:1314918)
      阿图尔·贝沙斯特尼 Artur Beschastnyy (id:1458528)
      尼古拉·萨姆索诺夫 Nikolay Samsonov (id:1449296)
      安东·施瓦茨 Anton Shwartz (id:1458529)
      安德烈·阿尔查科夫 Andrey Archakov (id:1458530)
      萨维尔·塔德沃西安 Samvel Tadevosian (id:1458531)
      马克·贾尼塞洛 Mark Janicello (id:1458533)
      德米特里·马特维耶夫 Dmitrii Matveev (id:1458532)

◎标  签 灾难 / 俄罗斯 / 历史 / 人性 / 剧情 / 苏联 / 社会 / 2021

◎简  介
  这是俄罗斯第一部大型电影,讲述了切尔诺贝利核电站事故的后果以及为避免全球灾难付出生命代价的人们的复原情况。并将欧洲大陆的大部分地区变成一个巨大的异地区和无人居住的沙漠。主角是消防队员阿列克谢,初看起来不像英雄。瓦莱尔卡工程师和鲍里斯的潜水员自愿同他一起去进行危险的突袭。 几乎没有时间制定详细的计划。由于熔化的堆芯临近,反应堆容器内的水每小时都变得越来越热。该小组面临着一个致命的任务,一个最危险的任务-去地狱,也许是最可怕的灾难后果。
General
Unique ID : 181546746459543155840013446672042526691 (0x8894A1AC08361DAFC2B70177508187E3)
Complete name : Chernobyl.2021.1080p.BluRay.DTS.x265-10bit-10007@SHOUFAZJ.COM.mkv
Format : Matroska
Format version : Version 4
File size : 7.97 GiB
Duration : 2 h 16 min
Overall bit rate : 8 365 kb/s
Movie name : Chernobyl 2021 1080P BluRay DTS x265-10bit-10007@SHOUFAZJ.COM
Encoded date : UTC 2021-07-14 12:10:04
Writing application : mkvmerge v38.0.0 ('The Silent Type') 64-bit
Writing library : libebml v1.3.9 + libmatroska v1.5.2

Video
ID : 1
Format : HEVC
Format/Info : High Efficiency Video Coding
Format profile : Main 10@L5.1@High
Codec ID : V_MPEGH/ISO/HEVC
Duration : 2 h 16 min
Bit rate : 6 823 kb/s
Width : 1 920 pixels
Height : 800 pixels
Display aspect ratio : 2.40:1
Frame rate mode : Constant
Frame rate : 24.000 FPS
Color space : YUV
Chroma subsampling : 4:2:0
Bit depth : 10 bits
Bits/(Pixel*Frame) : 0.185
Stream size : 6.50 GiB (82%)
Title : @HDSky
Writing library : x265 - H.265/HEVC codec
Default : Yes
Forced : No

Audio
ID : 2
Format : DTS
Format/Info : Digital Theater Systems
Codec ID : A_DTS
Duration : 2 h 16 min
Bit rate mode : Constant
Bit rate : 1 509 kb/s
Channel(s) : 6 channels
Channel layout : C L R Ls Rs LFE
Sampling rate : 48.0 kHz
Frame rate : 93.750 FPS (512 SPF)
Bit depth : 24 bits
Compression mode : Lossy
Stream size : 1.44 GiB (18%)
Title : Russian
Language : Russian
Default : Yes
Forced : No

Text #1
ID : 3
Format : PGS
Muxing mode : zlib
Codec ID : S_HDMV/PGS
Codec ID/Info : Picture based subtitle format used on BDs/HD-DVDs
Duration : 2 h 8 min
Bit rate : 24.2 kb/s
Count of elements : 2072
Stream size : 22.2 MiB (0%)
Title : ENG
Language : English
Default : Yes
Forced : No

Text #2
ID : 4
Format : PGS
Muxing mode : zlib
Codec ID : S_HDMV/PGS
Codec ID/Info : Picture based subtitle format used on BDs/HD-DVDs
Duration : 2 h 8 min
Bit rate : 20.8 kb/s
Count of elements : 2076
Stream size : 19.1 MiB (0%)
Title : CHS
Language : Chinese
Default : No
Forced : No

Text #3
ID : 5
Format : PGS
Muxing mode : zlib
Codec ID : S_HDMV/PGS
Codec ID/Info : Picture based subtitle format used on BDs/HD-DVDs
Duration : 2 h 8 min
Bit rate : 21.4 kb/s
Count of elements : 2076
Stream size : 19.7 MiB (0%)
Title : CHT
Language : Chinese
Default : No
Forced : No

Menu
00:00:00.000 : en:Chapter 01
00:17:18.917 : en:Chapter 02
00:34:18.542 : en:Chapter 03
00:50:42.375 : en:Chapter 04
01:07:19.583 : en:Chapter 05
01:25:18.000 : en:Chapter 06
01:36:17.958 : en:Chapter 07
01:47:06.708 : en:Chapter 08
02:03:34.958 : en:Chapter 09
02:07:12.125 : en:Chapter 10



游客,如果您要查看本帖隐藏内容请回复

精彩评论51

shaka 首发之星 显示全部楼层 发表于 2021-7-16 07:55:07
zxcv在小陈v不能买
haibo1hao 首发之星 显示全部楼层 发表于 2021-7-16 08:02:41
楼主辛苦了,谢谢首发之家!!
贵启_n97k5 初来首发 显示全部楼层 发表于 2021-7-16 08:21:43
好 很好 非常好 谢谢啦
Destroyer 首发新人 显示全部楼层 发表于 2021-7-16 08:38:12
非常感谢分享
mythanye 首发新人 显示全部楼层 发表于 2021-7-16 13:00:30
感谢楼主感谢楼主感谢楼主感谢楼主感谢楼主
abcq123456 初来首发 显示全部楼层 发表于 2021-7-16 14:54:44
想看这个电影链接发一下

way7676 首发熟人 显示全部楼层 发表于 2021-7-16 16:08:03
谢谢分享谢谢分享
zieyao0 首发之星 显示全部楼层 发表于 2021-7-16 16:18:26
楼主辛苦了,谢谢首发之家!
您需要登录后才可以回帖 登录 | 立即注册 用百度帐号登录

本版积分规则

首发之家社区成立于2011年3月,内容涉及3C家电、数码生活智能电视,股票软件,4K,体育,软件,教育,游戏等资源指标公式论坛。
  • 官方手机版

  • 抖音号

  • 商务合作