立即注册
 找回密码
 立即注册

扫一扫,访问微社区

用百度帐号登录

只需两步,快速登录

查看: 3648|回复: 82

[动作] [1999][欧美][惊悚][搏击俱乐部][BD1280超高清-MKV/2.9G][国英双语双字][世界十大惊悚片]

  [复制链接]
发表于 2015-7-23 16:02:56 | 显示全部楼层 |阅读模式
7e535175b5b4cb99706d3937ce9ba2bc.jpg
◎译  名 搏击俱乐部/搏击会(港)/斗阵俱乐部(台)/搏斗俱乐部
◎片  名 Fight Club
◎年  代 1999
◎国  家 美国/德国
◎类  别 剧情/动作/悬疑/惊悚
◎语  言 英语
◎上映日期 1999-10-15(美国)
◎IMDb评分  8.9/10 from 1,117,820 users
◎豆瓣评分 9.0/10 from 310,346 users
◎片  长 139 分钟
◎导  演 大卫·芬奇 David Fincher
◎主  演 爱德华·诺顿 Edward Norton
      布拉德·皮特 Brad Pitt
      海伦娜·邦汉·卡特 Helena Bonham Carter
      扎克·格雷尼尔 Zach Grenier
      米特·洛夫 Meat Loaf
      杰瑞德·莱托 Jared Leto
      艾恩·贝利 Eion Bailey
      里奇蒙德·阿奎特  Richmond Arquette
      乔治·马奎尔 George Maguire

◎简  介

  杰克(爱德华•诺顿 饰)是一个大汽车公司的人员,患有严重的失踪眠症,对周围的一切充满危机和仇恨。
  一个有时的机会,杰克赶上了卖番笕的商人泰勒(布拉德•皮特),一个满身充满起义、残暴和暴烈的痞子俊杰,并因为自己公寓失踪火而住进了泰勒破旧不胜的家中。两人人缘际会地成为了好同伙,并竖立了“搏击俱乐部”:一个让人们不戴护具而徒手搏击,大旨在于发泄情感的地下组织。
  俱乐部吸引了越来越多的人,逐渐成长成为一个全国性的地下组织,而泰勒也以自己小我的魅力,吸引着那些盲目标信徒。俱乐部的成员们到处滋事斗殴、鼎力破损,泰勒本人的行动也越来越专横狂。
  杰克对于“搏击俱乐部”的现况及泰勒的行动越来越无法忍耐,和泰勒产生争执,泰勒离开了他。然而,杰克发明,他走到何处都无法脱节泰勒的影子,他最先思虑:我到底是谁?

◎获奖情况

  第72届奥斯卡金像奖 (2000)
  最佳音效剪辑(提名) Ren Klyce / Richard Hymns

Video
ID                                       : 1
Format                                   : AVC
Format/Info                              : Advanced Video Codec
Format profile                           : High@L4.1
Format settings, CABAC                   : Yes
Format settings, ReFrames                : 4 frames
Codec ID                                 : V_MPEG4/ISO/AVC
Duration                                 : 2h 19mn
Bit rate                                 : 14.6 Mbps
Width                                    : 1 920 pixels
Height                                   : 800 pixels
Display aspect ratio                     : 2.40:1
Frame rate mode                          : Constant
Frame rate                               : 23.976 fps
Color space                              : YUV
Chroma subsampling                       : 4:2:0
Bit depth                                : 8 bits
Scan type                                : Progressive
Bits/(Pixel*Frame)                       : 0.398
Stream size                              : 13.9 GiB (84%)
Writing library                          : x264 core 79 r1342 e8501ef
Encoding settings                        : cabac=1 / ref=5 / deblock=1:-3:-3 / analyse=0x3:0x133 / me=esa / subme=10 / psy=1 / psy_rd=1.0:0.3 / mixed_ref=1 / me_range=24 / chroma_me=1 / trellis=2 / 8x8dct=1 / cqm=0 / deadzone=21,11 / chroma_qp_offset=-4 / threads=6 / nr=0 / decimate=0 / mbaff=0 / constrained_intra=0 / bframes=5 / b_pyramid=1 / b_adapt=2 / b_bias=0 / direct=3 / wpredb=1 / wpredp=2 / keyint=250 / keyint_min=25 / scenecut=40 / rc=2pass / mbtree=0 / bitrate=14648 / ratetol=1.0 / qcomp=0.60 / qpmin=10 / qpmax=30 / qpstep=4 / cplxblur=20.0 / qblur=0.5 / ip_ratio=1.40 / pb_ratio=1.30 / aq=1:0.70
Language                                 : English
Default                                  : Yes
Forced                                   : No
Color range                              : Full

Audio #1
ID                                       : 2
Format                                   : DTS
Format/Info                              : Digital Theater Systems
Mode                                     : 16
Format settings, Endianness              : Big
Codec ID                                 : A_DTS
Duration                                 : 2h 19mn
Bit rate mode                            : Constant
Bit rate                                 : 1 509 Kbps
Channel(s)                               : 6 channels
Channel positions                        : Front: L C R, Side: L R, LFE
Sampling rate                            : 48.0 KHz
Bit depth                                : 24 bits
Compression mode                         : Lossy
Stream size                              : 1.47 GiB (9%)
Language                                 : English
Default                                  : Yes
Forced                                   : No

Audio #2
ID                                       : 3
Format                                   : AC-3
Format/Info                              : Audio Coding 3
Mode extension                           : CM (complete main)
Format settings, Endianness              : Big
Codec ID                                 : A_AC3
Duration                                 : 2h 19mn
Bit rate mode                            : Constant
Bit rate                                 : 224 Kbps
Channel(s)                               : 2 channels
Channel positions                        : Front: L R
Sampling rate                            : 48.0 KHz
Bit depth                                : 16 bits
Compression mode                         : Lossy
Stream size                              : 223 MiB (1%)
Title                                    : Commentary 1
Language                                 : English
Default                                  : No
Forced                                   : No

Audio #3
ID                                       : 4
Format                                   : AC-3
Format/Info                              : Audio Coding 3
Mode extension                           : CM (complete main)
Format settings, Endianness              : Big
Codec ID                                 : A_AC3
Duration                                 : 2h 19mn
Bit rate mode                            : Constant
Bit rate                                 : 224 Kbps
Channel(s)                               : 2 channels
Channel positions                        : Front: L R
Sampling rate                            : 48.0 KHz
Bit depth                                : 16 bits
Compression mode                         : Lossy
Stream size                              : 223 MiB (1%)
Title                                    : Commentary 2
Language                                 : English
Default                                  : No
Forced                                   : No

Audio #4
ID                                       : 5
Format                                   : AC-3
Format/Info                              : Audio Coding 3
Mode extension                           : CM (complete main)
Format settings, Endianness              : Big
Codec ID                                 : A_AC3
Duration                                 : 2h 19mn
Bit rate mode                            : Constant
Bit rate                                 : 224 Kbps
Channel(s)                               : 2 channels
Channel positions                        : Front: L R
Sampling rate                            : 48.0 KHz
Bit depth                                : 16 bits
Compression mode                         : Lossy
Stream size                              : 223 MiB (1%)
Title                                    : Commentary 3
Language                                 : English
Default                                  : No
Forced                                   : No

Audio #5
ID                                       : 6
Format                                   : AC-3
Format/Info                              : Audio Coding 3
Mode extension                           : CM (complete main)
Format settings, Endianness              : Big
Codec ID                                 : A_AC3
Duration                                 : 2h 19mn
Bit rate mode                            : Constant
Bit rate                                 : 224 Kbps
Channel(s)                               : 2 channels
Channel positions                        : Front: L R
Sampling rate                            : 48.0 KHz
Bit depth                                : 16 bits
Compression mode                         : Lossy
Stream size                              : 223 MiB (1%)
Title                                    : Commentary 4
Language                                 : English
Default                                  : No
Forced                                   : No

Text #1
ID                                       : 7
Format                                   : ASS
Codec ID                                 : S_TEXT/ASS
Codec ID/Info                            : Advanced Sub Station Alpha
Compression mode                         : Lossless
Language                                 : English
Default                                  : No
Forced                                   : No

Text #2
ID                                       : 8
Format                                   : ASS
Codec ID                                 : S_TEXT/ASS
Codec ID/Info                            : Advanced Sub Station Alpha
Compression mode                         : Lossless
Title                                    : Commentary 1
Language                                 : English
Default                                  : No
Forced                                   : No

Text #3
ID                                       : 9
Format                                   : ASS
Codec ID                                 : S_TEXT/ASS
Codec ID/Info                            : Advanced Sub Station Alpha
Compression mode                         : Lossless
Title                                    : Commentary 2
Language                                 : English
Default                                  : No
Forced                                   : No

Text #4
ID                                       : 10
Format                                   : ASS
Codec ID                                 : S_TEXT/ASS
Codec ID/Info                            : Advanced Sub Station Alpha
Compression mode                         : Lossless
Title                                    : Commentary 3
Language                                 : English
Default                                  : No
Forced                                   : No

Text #5
ID                                       : 11
Format                                   : ASS
Codec ID                                 : S_TEXT/ASS
Codec ID/Info                            : Advanced Sub Station Alpha
Compression mode                         : Lossless
Title                                    : Commentary 4
Language                                 : English
Default                                  : No
Forced                                   : No

游客,如果您要查看本帖隐藏内容请回复
发表于 2015-7-23 18:12:37 | 显示全部楼层
啥也不说了,感谢楼主分享哇!
发表于 2015-7-23 18:35:35 | 显示全部楼层
搏击俱乐部]
发表于 2015-7-23 19:07:56 | 显示全部楼层
啥也不说了,感谢楼主分享哇!
发表于 2015-7-23 20:59:04 | 显示全部楼层
啥也不说了,感谢楼主分享哇!
发表于 2015-7-24 19:14:23 | 显示全部楼层
么有分,谁能送我点积分啊::>_<::
发表于 2015-7-25 03:31:49 | 显示全部楼层
Ladies n gentlemen:welocome to fight club!
发表于 2015-7-25 10:24:50 | 显示全部楼层
啥也不说了,感谢楼主分享哇!
发表于 2015-7-27 22:09:52 来自手机 | 显示全部楼层
lol没呃呃呃额额的弄
发表于 2015-7-29 16:48:11 | 显示全部楼层
顶~~~~~谢谢楼主谢谢楼主
您需要登录后才可以回帖 登录 | 立即注册 用百度帐号登录

本版积分规则

手机版

轻松易点,迅速到家!

官方微信

扫描二维码,即刻与小易亲密互动,还有劲爆优惠等你来拿!

订阅QQ邮件

第一手促销资讯,尊享邮件特惠商品,优惠不错过!

广告招商QQ:2295479776|小黑屋|手机版|首发之家论坛 |网站地图

GMT+8, 2020-5-30 06:03 , Processed in 0.206966 second(s), 29 queries , XCache On.

Powered by Discuz! X3.4

@ 2001-2013 Comsenz Inc.

快速回复 返回顶部 返回列表