立即注册
 找回密码
 立即注册

扫一扫,访问微社区

用百度帐号登录

只需两步,快速登录

查看: 719|回复: 24

2014巴西世界杯精彩集锦 2014 Alle Highlights 2014 GER Blu-ray 1080i AVC AC3 5.1-iFPD 37.6G

[复制链接]
发表于 2015-6-18 18:30:43 | 显示全部楼层 |阅读模式
47a789a9e4cfda93.jpg

540921c0030c4213.jpg

68c4b9134891c221.jpg
bed23c57ac1680f5.jpg
410dab01aadf4c23.jpg

General
ID                             : 0 (0x0)
Complete name                  : Y:\1080P\FIFA.WM.2014.Alle.Highlights.2014.GER.Blu-ray.1080i.AVC.AC3.5.1-iFPD\FIFA.WM.2014.Alle.Highlights.2014.GER.Blu-ray.1080i.AVC.AC3.5.1-iFPD\BDMV\STREAM\00007.m2ts
Format                         : BDAV
Format/Info                    : Blu-ray Video
File size                      : 28.8 GiB
Duration                       : 2h 49mn
Overall bit rate mode          : Variable
Overall bit rate               : 24.3 Mbps
Maximum Overall bit rate       : 48.0 Mbps

Video
ID                             : 4113 (0x1011)
Menu ID                        : 1 (0x1)
Format                         : AVC
Format/Info                    : Advanced Video Codec
Format profile                 : [email protected]
Format settings, CABAC         : Yes
Format settings, ReFrames      : 2 frames
Codec ID                       : 27
Duration                       : 2h 49mn
Bit rate mode                  : Variable
Bit rate                       : 22.9 Mbps
Maximum bit rate               : 35.2 Mbps
Width                          : 1 920 pixels
Height                         : 1 080 pixels
Display aspect ratio           : 16:9
Frame rate                     : 25.000 fps
Color space                    : YUV
Chroma subsampling             : 4:2:0
Bit depth                      : 8 bits
Scan type                      : MBAFF
Bits/(Pixel*Frame)             : 0.442
Stream size                    : 27.2 GiB (94%)

Audio
ID                             : 4352 (0x1100)
Menu ID                        : 1 (0x1)
Format                         : AC-3
Format/Info                    : Audio Coding 3
Mode extension                 : CM (complete main)
Format settings, Endianness    : Big
Codec ID                       : 129
Duration                       : 2h 49mn
Bit rate mode                  : Constant
Bit rate                       : 384 Kbps
Channel(s)                     : 6 channels
Channel positions              : Front: L C R, Side: L R, LFE
Sampling rate                  : 48.0 KHz
Bit depth                      : 16 bits
Compression mode               : Lossy
Stream size                    : 467 MiB (2%)
游客,如果您要查看本帖隐藏内容请回复
发表于 2015-6-18 22:29:01 | 显示全部楼层
这个喝高  必须得要 我TM 太感谢LZ了
发表于 2015-12-13 22:29:18 | 显示全部楼层
哈哈哈哈哈哈哈哈哈哈哈哈哈哈
发表于 2015-12-16 19:22:20 | 显示全部楼层
谢谢楼主分享
发表于 2016-2-23 15:23:44 | 显示全部楼层
啥也不说了,感谢楼主分享哇!
发表于 2016-2-28 00:41:23 | 显示全部楼层
啊实打实大师的撒
发表于 2016-3-8 15:50:10 | 显示全部楼层
看能不能下????
发表于 2016-3-8 22:02:29 | 显示全部楼层
非常谢谢楼主
发表于 2016-3-14 19:32:52 | 显示全部楼层
哈哈哈哈哈哈哈哈哈哈哈哈哈
发表于 2016-3-22 22:51:04 | 显示全部楼层
a123456a123456
您需要登录后才可以回帖 登录 | 立即注册 用百度帐号登录

本版积分规则

手机版

轻松易点,迅速到家!

官方微信

扫描二维码,即刻与小易亲密互动,还有劲爆优惠等你来拿!

订阅QQ邮件

第一手促销资讯,尊享邮件特惠商品,优惠不错过!

广告招商QQ:2295479776|小黑屋|手机版|首发之家论坛 |网站地图

GMT+8, 2018-12-14 22:50 , Processed in 0.092988 second(s), 26 queries , XCache On.

Powered by Discuz! X3.4

@ 2001-2013 Comsenz Inc.

快速回复 返回顶部 返回列表