立即注册
 找回密码
 立即注册

扫一扫,访问微社区

用百度帐号登录

只需两步,快速登录

查看: 1112|回复: 10

[动漫] 神奇马戏团之动物饼干 Animal.Crackers.2017.1080p.NF.WEBRip.DDP5.1.x264-TEPES 4...

[复制链接]
发表于 2020-7-27 10:08:36 | 显示全部楼层 |阅读模式
帖子完整标题:神奇马戏团之动物饼干 Animal.Crackers.2017.1080P.NF.WEBRip.DDP5.1.x264-TEPES 4.18GB



0b4136d75e756e09c82dfe82ada054e4.jpeg

◎译  名 神奇马戏团之动物饼干 / Animal Crackers / Magical Circus / 动物饼干 / 神奇马戏团
◎片  名 Magical Circus: Animal Crackers
◎年  代 2017
◎产  地 美国 / 西班牙 / 中国大陆 / 韩国 / 中国香港
◎类  别 喜剧 / 动画 / 奇幻 / 冒险
◎语  言 英语
◎上映日期 2017-06-12(安锡动画电影节) / 2018-07-21(中国大陆)
◎IMDb评分 5.4/10 from 551 users
◎IMDb链接 https://www.imdb.com/title/tt4155534
◎豆瓣评分 5.7/10 from 3862 users
◎豆瓣链接 https://movie.douban.com/subject/26253783/
◎片  长 94分钟
◎导  演 托尼·班克罗夫特 Tony Bancroft / Scott Christian Sava
◎编  剧 Scott Christian Sava / Dean Lorey / 关雷溟 Leiming Guan / 李卓辰 Zuochen Li
◎主  演 艾米莉·布朗特 Emily Blunt
      约翰·卡拉辛斯基 John Krasinski
      伊恩·麦克莱恩 Ian McKellen
      西尔维斯特·史泰龙 Sylvester Stallone
      丹尼·德维托 Danny DeVito
      雷文-西蒙尼 Raven-Symoné
      帕特里克·沃伯顿 Patrick Warburton
      塔拉·斯特朗 Tara Strong
      吉尔伯特·戈特弗雷德 Gilbert Gottfried
      詹姆斯·阿诺德·泰勒 James Arnold Taylor
      凯文·格雷维奥斯 Kevin Grevioux
      哈维·费斯特恩 Harvey Fierstein
      凯莉·库柯-斯威汀 Kaley Cuoco-Sweeting


◎标  签 动画 | 喜剧 | 奇幻 | 美国 | 家庭 | 温情 | 2018 | 冒险

◎简  介

  欧文的叔叔在经营着一家以动物表演闻名的马戏团,但一场大火却让叔叔意外去世,马戏团的表演场也全部化为灰烬。此时,继承马戏团的重担落在了欧文身上,但他却显得犹豫不决,而在叔叔的葬礼上,欧文的大伯霍勒肖放话要继承马戏团和宝藏,小丑红鼻头也将一盒贴着“绝对不能吃”的动物饼干交给了欧文,令局势更加混乱……

◎获奖情况

  第21届上海国际电影节(2018)
  金爵奖 最佳动画片(提名) 托尼·班克罗夫特
Video
ID : 1
Format : AVC
Format/Info : Advanced Video Codec
Format profile : Main@L4
Format settings : CABAC / 3 Ref Frames
Format settings, CABAC : Yes
Format settings, Reference frames : 3 frames
Codec ID : V_MPEG4/ISO/AVC
Duration : 1 h 45 min
Bit rate mode : Variable
Bit rate : 5 110 kb/s
Maximum bit rate : 7 665 kb/s
Width : 1 920 pixels
Height : 1 080 pixels
Display aspect ratio : 16:9
Frame rate mode : Constant
Frame rate : 24.000 FPS
Color space : YUV
Chroma subsampling : 4:2:0
Bit depth : 8 bits
Scan type : Progressive
Bits/(Pixel*Frame) : 0.103
Stream size : 3.71 GiB (89%)
Writing library : x264 core 148 r2717 0d2410d
Encoding settings : cabac=1 / ref=3 / deblock=1:0:0 / analyse=0x1:0x111 / me=umh / subme=10 / psy=1 / psy_rd=1.00:0.00 / mixed_ref=1 / me_range=24 / chroma_me=1 / trellis=2 / 8x8dct=0 / cqm=0 / deadzone=21,11 / fast_pskip=1 / chroma_qp_offset=-2 / threads=8 / lookahead_threads=1 / sliced_threads=0 / nr=0 / decimate=1 / interlaced=0 / bluray_compat=0 / stitchable=1 / constrained_intra=0 / bframes=2 / b_pyramid=0 / b_adapt=2 / b_bias=0 / direct=3 / weightb=1 / open_gop=0 / weightp=2 / keyint=250 / keyint_min=24 / scenecut=0 / intra_refresh=0 / rc_lookahead=48 / rc=2pass / mbtree=1 / bitrate=5110 / ratetol=1.0 / qcomp=0.50 / qpmin=6 / qpmax=51 / qpstep=4 / cplxblur=20.0 / qblur=0.5 / vbv_maxrate=7665 / vbv_bufsize=10220 / nal_hrd=vbr / filler=0 / ip_ratio=1.40 / aq=1:1.00
Default : Yes
Forced : No

Audio
ID : 2
Format : E-AC-3
Format/Info : Enhanced AC-3
Commercial name : Dolby Digital Plus
Codec ID : A_EAC3
Duration : 1 h 45 min
Bit rate mode : Constant
Bit rate : 640 kb/s
Channel(s) : 6 channels
Channel layout : L R C LFE Ls Rs
Sampling rate : 48.0 kHz
Frame rate : 31.250 FPS (1536 SPF)
Compression mode : Lossy
Stream size : 484 MiB (11%)
Language : English
Service kind : Complete Main
Default : Yes
Forced : No

Text #1
ID : 3
Format : UTF-8
Codec ID : S_TEXT/UTF8
Codec ID/Info : UTF-8 Plain Text
Duration : 1 h 37 min
Bit rate : 86 b/s
Count of elements : 2002
Stream size : 62.0 KiB (0%)
Title : SDH
Language : English
Default : No
Forced : No

Text #2
ID : 4
Format : UTF-8
Codec ID : S_TEXT/UTF8
Codec ID/Info : UTF-8 Plain Text
Duration : 1 h 43 min
Bit rate : 53 b/s
Count of elements : 1561
Stream size : 40.3 KiB (0%)
Language : Danish
Default : No
Forced : No

Text #3
ID : 5
Format : UTF-8
Codec ID : S_TEXT/UTF8
Codec ID/Info : UTF-8 Plain Text
Duration : 1 h 43 min
Bit rate : 61 b/s
Count of elements : 1404
Stream size : 46.4 KiB (0%)
Language : German
Default : No
Forced : No

Text #4
ID : 6
Format : UTF-8
Codec ID : S_TEXT/UTF8
Codec ID/Info : UTF-8 Plain Text
Duration : 1 h 43 min
Bit rate : 91 b/s
Count of elements : 1530
Stream size : 69.1 KiB (0%)
Language : Greek
Default : No
Forced : No

Text #5
ID : 7
Format : UTF-8
Codec ID : S_TEXT/UTF8
Codec ID/Info : UTF-8 Plain Text
Duration : 1 h 43 min
Bit rate : 55 b/s
Count of elements : 1526
Stream size : 42.2 KiB (0%)
Title : Latin American
Language : Spanish
Default : No
Forced : No

Text #6
ID : 8
Format : UTF-8
Codec ID : S_TEXT/UTF8
Codec ID/Info : UTF-8 Plain Text
Duration : 1 h 43 min
Bit rate : 55 b/s
Count of elements : 1560
Stream size : 42.2 KiB (0%)
Title : European
Language : Spanish
Default : No
Forced : No

Text #7
ID : 9
Format : UTF-8
Codec ID : S_TEXT/UTF8
Codec ID/Info : UTF-8 Plain Text
Duration : 1 h 43 min
Bit rate : 47 b/s
Count of elements : 1355
Stream size : 35.7 KiB (0%)
Language : Finnish
Default : No
Forced : No

Text #8
ID : 10
Format : UTF-8
Codec ID : S_TEXT/UTF8
Codec ID/Info : UTF-8 Plain Text
Duration : 1 h 43 min
Bit rate : 55 b/s
Count of elements : 1542
Stream size : 42.1 KiB (0%)
Language : French
Default : No
Forced : No

Text #9
ID : 11
Format : UTF-8
Codec ID : S_TEXT/UTF8
Codec ID/Info : UTF-8 Plain Text
Duration : 1 h 43 min
Bit rate : 53 b/s
Count of elements : 1461
Stream size : 40.3 KiB (0%)
Language : Italian
Default : No
Forced : No

Text #10
ID : 12
Format : UTF-8
Codec ID : S_TEXT/UTF8
Codec ID/Info : UTF-8 Plain Text
Duration : 1 h 43 min
Bit rate : 65 b/s
Count of elements : 1607
Stream size : 49.4 KiB (0%)
Language : Japanese
Default : No
Forced : No

Text #11
ID : 13
Format : UTF-8
Codec ID : S_TEXT/UTF8
Codec ID/Info : UTF-8 Plain Text
Duration : 1 h 43 min
Bit rate : 51 b/s
Count of elements : 1544
Stream size : 39.0 KiB (0%)
Language : Norwegian Bokmal
Default : No
Forced : No

Text #12
ID : 14
Format : UTF-8
Codec ID : S_TEXT/UTF8
Codec ID/Info : UTF-8 Plain Text
Duration : 1 h 43 min
Bit rate : 45 b/s
Count of elements : 1376
Stream size : 34.1 KiB (0%)
Language : Dutch
Default : No
Forced : No

Text #13
ID : 15
Format : UTF-8
Codec ID : S_TEXT/UTF8
Codec ID/Info : UTF-8 Plain Text
Duration : 1 h 43 min
Bit rate : 55 b/s
Count of elements : 1333
Stream size : 41.7 KiB (0%)
Title : Brazilian
Language : Portuguese
Default : No
Forced : No

Text #14
ID : 16
Format : UTF-8
Codec ID : S_TEXT/UTF8
Codec ID/Info : UTF-8 Plain Text
Duration : 1 h 43 min
Bit rate : 53 b/s
Count of elements : 1474
Stream size : 40.6 KiB (0%)
Language : Swedish
Default : No
Forced : No

Text #15
ID : 17
Format : UTF-8
Codec ID : S_TEXT/UTF8
Codec ID/Info : UTF-8 Plain Text
Duration : 1 h 43 min
Bit rate : 153 b/s
Count of elements : 1568
Stream size : 116 KiB (0%)
Language : Thai
Default : No
Forced : No

Text #16
ID : 18
Format : UTF-8
Codec ID : S_TEXT/UTF8
Codec ID/Info : UTF-8 Plain Text
Duration : 1 h 43 min
Bit rate : 69 b/s
Count of elements : 1557
Stream size : 52.7 KiB (0%)
Language : Vietnamese
Default : No
Forced : No

Text #17
ID : 19
Format : UTF-8
Codec ID : S_TEXT/UTF8
Codec ID/Info : UTF-8 Plain Text
Duration : 1 h 43 min
Bit rate : 62 b/s
Count of elements : 1562
Stream size : 46.9 KiB (0%)
Title : Simplified
Language : Chinese
Default : No
Forced : No

Text #18
ID : 20
Format : UTF-8
Codec ID : S_TEXT/UTF8
Codec ID/Info : UTF-8 Plain Text
Duration : 1 h 43 min
Bit rate : 63 b/s
Count of elements : 1560
Stream size : 48.1 KiB (0%)
Title : Traditional
Language : Chinese
Default : No
Forced : No

4a1a26c4c9e339c0ad7dbcf64bb3ba3d.png 0f8938d670d84e3a35bdfcc12ad9a66c.png
游客,如果您要查看本帖隐藏内容请回复
发表于 2020-7-27 12:30:36 | 显示全部楼层
楼主辛苦了,谢谢首发之家!!
发表于 2020-7-27 17:37:53 | 显示全部楼层
支持支持支持支持支持支持支持支持支持支持支持支持支持支持支持
发表于 2020-7-27 20:58:39 | 显示全部楼层
楼主辛苦了,感谢首发之荚丁!
发表于 2020-7-28 09:44:54 | 显示全部楼层
哈哈哈哈哈哈哈哈哈哈哈
发表于 2020-7-28 21:27:14 | 显示全部楼层
11111111111111111111111111
发表于 2020-7-29 07:08:12 | 显示全部楼层

感谢感动分享
发表于 2020-7-29 17:17:11 | 显示全部楼层
楼主辛苦了,谢谢首发之家!
发表于 2020-7-29 22:22:50 | 显示全部楼层
楼主辛苦了,谢谢首发之家!!
发表于 2020-7-31 09:36:42 | 显示全部楼层
楼主辛苦了,谢谢首发之家!!
您需要登录后才可以回帖 登录 | 立即注册 用百度帐号登录

本版积分规则

手机版

轻松易点,迅速到家!

官方微信

扫描二维码,即刻与小易亲密互动,还有劲爆优惠等你来拿!

订阅QQ邮件

第一手促销资讯,尊享邮件特惠商品,优惠不错过!

广告招商QQ:2295479776|小黑屋|手机版|首发之家论坛 |网站地图

GMT+8, 2020-8-12 11:06 , Processed in 0.140204 second(s), 26 queries , XCache On.

Powered by Discuz! X3.4

@ 2001-2013 Comsenz Inc.

快速回复 返回顶部 返回列表