立即注册
 找回密码
 立即注册

扫一扫,访问微社区

用百度帐号登录

只需两步,快速登录

查看: 1210|回复: 1

[剧情] 女人们的阳台 The.Womens.Balcony.2016.LIMITED.1080p.BluRay.x264-USURY 6.58GB

[复制链接]
发表于 2020-7-27 10:07:46 | 显示全部楼层 |阅读模式
帖子完整标题:女人们的阳台 The.Womens.Balcony.2016.LIMITED.1080P.BluRay.x264-USURY 6.58GB



0c1e68208c3ed0a121329488250c70e0.jpeg

◎译  名 女人们的阳台 / The Women's Balcony
◎片  名 Ismach Hatani
◎年  代 2016
◎产  地 以色列
◎类  别 剧情 / 喜剧
◎语  言 希伯来语
◎上映日期 2016-09-29(以色列)
◎IMDb评分 6.5/10 from 665 users
◎IMDb链接 https://www.imdb.com/title/tt5974460
◎豆瓣评分 0/10 from 0 users
◎豆瓣链接 https://movie.douban.com/subject/26881652/
◎片  长 96分钟
◎导  演 Emil Ben-Shimon
◎编  剧 Shlomit Nehama
◎主  演 Avraham Aviv Alush
      Yafit Asulin
      Orna Banai
      Evelin Hagoel
      Igal Naor
      Herzl Tobey


◎标  签 以色列 | 爱情 | 温情 | 歐美電影 | 宗教 | 女权 | 喜剧 | 亲情

◎简  介

  A bar mitzvah mishap causes a major rift in a devout Orthodox community in Jerusalem.
Video
ID : 1
Format : AVC
Format/Info : Advanced Video Codec
Format profile : High@L4.1
Format settings : CABAC / 5 Ref Frames
Format settings, CABAC : Yes
Format settings, Reference frames : 5 frames
Codec ID : V_MPEG4/ISO/AVC
Duration : 1 h 39 min
Bit rate : 8 761 kb/s
Width : 1 920 pixels
Height : 808 pixels
Display aspect ratio : 2.40:1
Frame rate mode : Constant
Frame rate : 24.000 FPS
Color space : YUV
Chroma subsampling : 4:2:0
Bit depth : 8 bits
Scan type : Progressive
Bits/(Pixel*Frame) : 0.235
Stream size : 6.11 GiB (93%)
Writing library : x264 core 152 r2851 ba24899
Encoding settings : cabac=1 / ref=5 / deblock=1:-3:-3 / analyse=0x3:0x133 / me=umh / subme=9 / psy=1 / psy_rd=1.00:0.00 / mixed_ref=1 / me_range=16 / chroma_me=1 / trellis=2 / 8x8dct=1 / cqm=0 / deadzone=21,11 / fast_pskip=0 / chroma_qp_offset=-2 / threads=18 / lookahead_threads=1 / sliced_threads=0 / nr=0 / decimate=1 / interlaced=0 / bluray_compat=0 / constrained_intra=0 / bframes=3 / b_pyramid=2 / b_adapt=1 / b_bias=0 / direct=3 / weightb=1 / open_gop=0 / weightp=2 / keyint=240 / keyint_min=24 / scenecut=40 / intra_refresh=0 / rc_lookahead=50 / rc=2pass / mbtree=1 / bitrate=8761 / ratetol=1.0 / qcomp=0.60 / qpmin=0 / qpmax=69 / qpstep=4 / cplxblur=20.0 / qblur=0.5 / ip_ratio=1.40 / aq=1:1.00
Language : English
Default : Yes
Forced : No

Audio
ID : 2
Format : AC-3
Format/Info : Audio Coding 3
Commercial name : Dolby Digital
Codec ID : A_AC3
Duration : 1 h 39 min
Bit rate mode : Constant
Bit rate : 640 kb/s
Channel(s) : 6 channels
Channel layout : L R C LFE Ls Rs
Sampling rate : 48.0 kHz
Frame rate : 31.250 FPS (1536 SPF)
Compression mode : Lossy
Stream size : 457 MiB (7%)
Language : Hebrew
Service kind : Complete Main
Default : Yes
Forced : No

Text
ID : 3
Format : UTF-8
Codec ID : S_TEXT/UTF8
Codec ID/Info : UTF-8 Plain Text
Duration : 1 h 32 min
Bit rate : 65 b/s
Count of elements : 1479
Stream size : 44.4 KiB (0%)
Title : English
Language : English
Default : Yes
Forced : Yes

Menu
00:00:00.000 : en:00:00:00.000
00:19:31.167 : en:00:19:31.167
00:39:05.458 : en:00:39:05.458
00:58:44.250 : en:00:58:44.250
01:16:41.333 : en:01:16:41.333
01:35:29.042 : en:01:35:29.042

32d6589ba042d71b356fab1c0fa2ae2a.jpeg


游客,如果您要查看本帖隐藏内容请回复
发表于 2020-7-29 22:23:11 | 显示全部楼层
楼主辛苦了,谢谢首发之家!!
您需要登录后才可以回帖 登录 | 立即注册 用百度帐号登录

本版积分规则

手机版

轻松易点,迅速到家!

官方微信

扫描二维码,即刻与小易亲密互动,还有劲爆优惠等你来拿!

订阅QQ邮件

第一手促销资讯,尊享邮件特惠商品,优惠不错过!

广告招商QQ:2295479776|小黑屋|手机版|首发之家论坛 |网站地图

GMT+8, 2020-8-12 14:44 , Processed in 0.124486 second(s), 26 queries , XCache On.

Powered by Discuz! X3.4

@ 2001-2013 Comsenz Inc.

快速回复 返回顶部 返回列表