立即注册
 找回密码
 立即注册

扫一扫,访问微社区

用百度帐号登录

只需两步,快速登录

查看: 600|回复: 2

[剧情] 狱中困斗/路纳 R.2010.1080p.BluRay.x264-USURY 7.65GB

[复制链接]
发表于 2020-7-27 10:06:14 | 显示全部楼层 |阅读模式
a5f8121b29c7994ec2b6e3560a871d50.jpeg

◎译  名 狱中困斗 / 路纳
◎片  名 R
◎年  代 2010
◎产  地 丹麦
◎类  别 剧情
◎语  言 丹麦语 / 阿拉伯语
◎上映日期 2010-04-22(丹麦)
◎IMDb评分 7.1/10 from 4447 users
◎IMDb链接 https://www.imdb.com/title/tt1434443
◎豆瓣评分 6.6/10 from 403 users
◎豆瓣链接 https://movie.douban.com/subject/4288471/
◎片  长 99分钟
◎导  演 托比亚斯·林道赫姆 Tobias Lindholm / Michael Noer
◎编  剧 托比亚斯·林道赫姆 Tobias Lindholm / Michael Noer
◎主  演 皮鲁·埃斯贝克 Pilou Asb?k
      奥玛尔·沙加威 Omar Shargawi
      杜菲·阿尔-加布尔 Dulfi Al-Jabouri
      罗兰·默勒 Roland M?ller


◎标  签 丹麦 | 监狱 | 剧情 | 丹麦电影 | 犯罪 | 狱中困斗 | 2010 | TobiasLindholm

◎简  介

  路纳因暴力伤害入监服刑,当身后的铁门关上,他要如何在铁门重新开启时全身而退,找出免于惹祸上身的生存法则?然而在这弱肉强食的监狱世界,现实却似乎没有他算计得那样容易……毫不掩饰的暴力相向,写实呈现幽微阴暗的监狱风景,悖离道德的心机算计,都一再挑战观众的忍耐极限,宛如《预言者》另一篇章。
Video
ID : 1
Format : AVC
Format/Info : Advanced Video Codec
Format profile : High@L4.1
Format settings : CABAC / 4 Ref Frames
Format settings, CABAC : Yes
Format settings, Reference frames : 4 frames
Codec ID : V_MPEG4/ISO/AVC
Duration : 1 h 36 min
Bit rate : 9 898 kb/s
Width : 1 920 pixels
Height : 1 080 pixels
Display aspect ratio : 16:9
Frame rate mode : Constant
Frame rate : 25.000 FPS
Color space : YUV
Chroma subsampling : 4:2:0
Bit depth : 8 bits
Scan type : Progressive
Bits/(Pixel*Frame) : 0.191
Stream size : 6.64 GiB (87%)
Writing library : x264 core 152 r2851 ba24899
Encoding settings : cabac=1 / ref=4 / deblock=1:-3:-3 / analyse=0x3:0x133 / me=umh / subme=9 / psy=1 / psy_rd=1.00:0.00 / mixed_ref=1 / me_range=16 / chroma_me=1 / trellis=2 / 8x8dct=1 / cqm=0 / deadzone=21,11 / fast_pskip=0 / chroma_qp_offset=-2 / threads=24 / lookahead_threads=2 / sliced_threads=0 / nr=0 / decimate=1 / interlaced=0 / bluray_compat=0 / constrained_intra=0 / bframes=3 / b_pyramid=2 / b_adapt=1 / b_bias=0 / direct=3 / weightb=1 / open_gop=0 / weightp=2 / keyint=250 / keyint_min=25 / scenecut=40 / intra_refresh=0 / rc_lookahead=50 / rc=2pass / mbtree=1 / bitrate=9898 / ratetol=1.0 / qcomp=0.60 / qpmin=0 / qpmax=69 / qpstep=4 / cplxblur=20.0 / qblur=0.5 / ip_ratio=1.40 / aq=1:1.00
Language : English
Default : Yes
Forced : No

Audio
ID : 2
Format : DTS
Format/Info : Digital Theater Systems
Codec ID : A_DTS
Duration : 1 h 36 min
Bit rate mode : Constant
Bit rate : 1 509 kb/s
Channel(s) : 6 channels
Channel layout : C L R Ls Rs LFE
Sampling rate : 48.0 kHz
Frame rate : 93.750 FPS (512 SPF)
Bit depth : 24 bits
Compression mode : Lossy
Stream size : 1.01 GiB (13%)
Language : Danish
Default : Yes
Forced : No

Text
ID : 3
Format : UTF-8
Codec ID : S_TEXT/UTF8
Codec ID/Info : UTF-8 Plain Text
Duration : 1 h 33 min
Bit rate : 29 b/s
Count of elements : 608
Stream size : 20.3 KiB (0%)
Title : English
Language : English
Default : Yes
Forced : Yes

Menu
00:00:00.000 : en:00:00:00.000
00:07:53.000 : en:00:07:53.000
00:15:23.240 : en:00:15:23.240
00:21:05.240 : en:00:21:05.240
00:30:17.640 : en:00:30:17.640
00:39:09.920 : en:00:39:09.920
00:49:39.120 : en:00:49:39.120
00:56:28.600 : en:00:56:28.600
01:04:01.920 : en:01:04:01.920
01:11:49.760 : en:01:11:49.760
01:19:08.600 : en:01:19:08.600
01:27:55.480 : en:01:27:55.480


游客,如果您要查看本帖隐藏内容请回复
发表于 2020-7-28 17:22:32 | 显示全部楼层
楼主辛苦了,谢谢首发之家!!
发表于 2020-7-29 22:23:52 | 显示全部楼层
楼主辛苦了,谢谢首发之家!!
您需要登录后才可以回帖 登录 | 立即注册 用百度帐号登录

本版积分规则

手机版

轻松易点,迅速到家!

官方微信

扫描二维码,即刻与小易亲密互动,还有劲爆优惠等你来拿!

订阅QQ邮件

第一手促销资讯,尊享邮件特惠商品,优惠不错过!

广告招商QQ:2295479776|小黑屋|手机版|首发之家论坛 |网站地图

GMT+8, 2020-8-9 13:35 , Processed in 0.124387 second(s), 26 queries , XCache On.

Powered by Discuz! X3.4

@ 2001-2013 Comsenz Inc.

快速回复 返回顶部 返回列表