立即注册
 找回密码
 立即注册

扫一扫,访问微社区

用百度帐号登录

只需两步,快速登录

查看: 446|回复: 1

[剧情] 石之痛 From.the.Land.of.the.Moon.2016.LIMITED.1080p.BluRay.x264-USURY 9.83GB

[复制链接]
发表于 2020-7-27 10:05:44 | 显示全部楼层 |阅读模式
9317fff8c3a363d325081d2a3b361684.jpeg

◎译  名 石之痛 / From the Land of the Moon / 炽恋(台) / 米粒之石 / 迷情花月(港)
◎片  名 Mal de pierres
◎年  代 2016
◎产  地 法国 / 比利时 / 加拿大
◎类  别 剧情 / 爱情
◎语  言 法语 / 西班牙语 / 德语
◎上映日期 2016-05-15(戛纳电影节) / 2016-10-19(法国)
◎IMDb评分 6.7/10 from 5153 users
◎IMDb链接 https://www.imdb.com/title/tt3794028
◎豆瓣评分 6.7/10 from 1011 users
◎豆瓣链接 https://movie.douban.com/subject/26051524/
◎片  长 120分钟
◎导  演 妮可·加西亚 Nicole Garcia
◎编  剧 妮可·加西亚 Nicole Garcia / 雅克·菲耶斯基 Jacques Fieschi / 纳塔利·卡特 Nathalie Carter / 米伦娜·阿格斯 Milena Agus
◎主  演 玛丽昂·歌迪亚 Marion Cotillard
      路易·加瑞尔 Louis Garrel
      亚历克斯·布伦德穆尔 àlex Brendemühl
      布里吉特·罗安 Brigitte Roüan
      维克托瓦尔·杜·波依斯 Victoire Du Bois
      阿罗伊斯·索维奇 Alo?se Sauvage
      丹尼尔·帕拉 Daniel Para
      金基万 Jihwan Kim
      维克托·奎利奇尼 Victor Quilichini
      弗朗西斯科·阿方辛 Francisco Alfonsin
      亚瑟·伊瓜尔 Arthur Igual
      热罗姆·夏帕特 Jér?me Chappatte


◎标  签 法国 | 爱情 | 2016 | 女性 | 剧情 | 戛纳 | 文艺 | 小说改编

◎简  介

  加布里埃尔成长在法国南部小镇的一个小农资产阶级家庭。在这里,她对真爱的渴望与追求被视为丑闻,人们也因此认为她大概是精神错乱了。她的双亲将她嫁给了何塞,一个诚实而好心肠的西班牙农场工人,并期待何塞能帮加布里埃尔成为一个值得尊敬的女人。尽管何塞对她百般照顾,可加布里埃尔却发誓她不可能爱他,她感觉自己活得向一名囚犯。当她被送到温泉疗养地去治疗肾结石时,她遇到了安德烈 ?索瓦热——一个在印度支那战争中受伤的中尉,他重新燃起了她心中对爱的热情。她向他发誓要一起私奔,而他似乎也回应了她的欲求。这次,还有人敢夺走加布里埃尔追求她梦想的权利吗?

◎获奖情况

  第69届戛纳电影节(2016)
  主竞赛单元 金棕榈奖(提名) 妮可·加西亚

  第42届法国凯撒电影奖(2017)
  最佳影片(提名)
  最佳导演(提名) 妮可·加西亚
  最佳女主角(提名) 玛丽昂·歌迪亚
  最佳改编剧本(提名) 雅克·菲耶斯基 / 妮可·加西亚
  最佳摄影(提名)
  最佳剪辑(提名)
  最佳音效(提名)
  最佳服装(提名)
Video
ID : 1
Format : AVC
Format/Info : Advanced Video Codec
Format profile : High@L4.1
Format settings : CABAC / 5 Ref Frames
Format settings, CABAC : Yes
Format settings, Reference frames : 5 frames
Codec ID : V_MPEG4/ISO/AVC
Duration : 2 h 0 min
Bit rate : 10.2 Mb/s
Width : 1 920 pixels
Height : 800 pixels
Display aspect ratio : 2.40:1
Frame rate mode : Constant
Frame rate : 24.000 FPS
Color space : YUV
Chroma subsampling : 4:2:0
Bit depth : 8 bits
Scan type : Progressive
Bits/(Pixel*Frame) : 0.275
Stream size : 8.56 GiB (87%)
Writing library : x264 core 152 r2851 ba24899
Encoding settings : cabac=1 / ref=5 / deblock=1:-3:-3 / analyse=0x3:0x133 / me=umh / subme=9 / psy=1 / psy_rd=1.00:0.00 / mixed_ref=1 / me_range=16 / chroma_me=1 / trellis=2 / 8x8dct=1 / cqm=0 / deadzone=21,11 / fast_pskip=0 / chroma_qp_offset=-2 / threads=24 / lookahead_threads=2 / sliced_threads=0 / nr=0 / decimate=1 / interlaced=0 / bluray_compat=0 / constrained_intra=0 / bframes=3 / b_pyramid=2 / b_adapt=1 / b_bias=0 / direct=3 / weightb=1 / open_gop=0 / weightp=2 / keyint=240 / keyint_min=24 / scenecut=40 / intra_refresh=0 / rc_lookahead=50 / rc=2pass / mbtree=1 / bitrate=10155 / ratetol=1.0 / qcomp=0.60 / qpmin=0 / qpmax=69 / qpstep=4 / cplxblur=20.0 / qblur=0.5 / ip_ratio=1.40 / aq=1:1.00
Language : English
Default : Yes
Forced : No

Audio
ID : 2
Format : DTS
Format/Info : Digital Theater Systems
Codec ID : A_DTS
Duration : 2 h 0 min
Bit rate mode : Constant
Bit rate : 1 509 kb/s
Channel(s) : 6 channels
Channel layout : C L R Ls Rs LFE
Sampling rate : 48.0 kHz
Frame rate : 93.750 FPS (512 SPF)
Bit depth : 24 bits
Compression mode : Lossy
Stream size : 1.27 GiB (13%)
Language : French
Default : Yes
Forced : No

Text #1
ID : 3
Format : UTF-8
Codec ID : S_TEXT/UTF8
Codec ID/Info : UTF-8 Plain Text
Duration : 1 h 59 min
Bit rate : 20 b/s
Count of elements : 813
Stream size : 17.9 KiB (0%)
Title : English
Language : English
Default : Yes
Forced : Yes

Text #2
ID : 4
Format : UTF-8
Codec ID : S_TEXT/UTF8
Codec ID/Info : UTF-8 Plain Text
Duration : 2 h 0 min
Bit rate : 24 b/s
Count of elements : 995
Stream size : 21.8 KiB (0%)
Title : English SDH
Language : English
Default : No
Forced : No

Menu
00:00:00.000 : en:00:00:00.000
00:09:13.292 : en:00:09:13.292
00:20:17.625 : en:00:20:17.625
00:30:15.792 : en:00:30:15.792
00:41:17.833 : en:00:41:17.833
00:51:22.542 : en:00:51:22.542
00:59:30.542 : en:00:59:30.542
01:09:09.542 : en:01:09:09.542
01:18:47.167 : en:01:18:47.167
01:30:38.042 : en:01:30:38.042
01:38:45.375 : en:01:38:45.375
01:50:58.375 : en:01:50:58.375
01:55:43.167 : en:01:55:43.167

147f1524e8709cc70f464754e0f37c6d.jpeg
游客,如果您要查看本帖隐藏内容请回复
发表于 2020-7-29 22:24:10 | 显示全部楼层
楼主辛苦了,谢谢首发之家!!
您需要登录后才可以回帖 登录 | 立即注册 用百度帐号登录

本版积分规则

手机版

轻松易点,迅速到家!

官方微信

扫描二维码,即刻与小易亲密互动,还有劲爆优惠等你来拿!

订阅QQ邮件

第一手促销资讯,尊享邮件特惠商品,优惠不错过!

广告招商QQ:2295479776|小黑屋|手机版|首发之家论坛 |网站地图

GMT+8, 2020-8-9 13:21 , Processed in 0.136135 second(s), 26 queries , XCache On.

Powered by Discuz! X3.4

@ 2001-2013 Comsenz Inc.

快速回复 返回顶部 返回列表