立即注册
 找回密码
 立即注册

扫一扫,访问微社区

用百度帐号登录

只需两步,快速登录

查看: 382|回复: 1

[剧情] 大黎明 Un.Flic.1972.1080p.BluRay.x264-USURY 8.75GB

[复制链接]
发表于 2020-7-27 10:05:08 | 显示全部楼层 |阅读模式
帖子完整标题:大黎明 Un.Flic.1972.1080P.BluRay.x264-USURY 8.75GB



4f5a40b89b4b4de0f3b7c502e9e44238.jpeg

◎译  名 大黎明 / A cop / Dirty Money / 巴黎大特急 / 警官 / 铁血神探
◎片  名 Un flic
◎年  代 1972
◎产  地 法国 / 意大利
◎类  别 剧情 / 动作 / 犯罪
◎语  言 法语
◎上映日期 1972-10
◎IMDb评分 7.1/10 from 7786 users
◎IMDb链接 https://www.imdb.com/title/tt0067900
◎豆瓣评分 7.6/10 from 1776 users
◎豆瓣链接 https://movie.douban.com/subject/1301658/
◎片  长 98 分钟
◎导  演 Jean-Pierre Melville
◎编  剧 Jean-Pierre Melville
◎主  演 阿兰·德龙 Alain Delon
      理查德·克里纳 Richard Crenna
      凯瑟琳·德纳芙 Catherine Deneuve
      里卡多·库乔拉 Riccardo Cucciolla
      迈克尔·康拉德 Michael Conrad
      保罗·克罗谢 Paul Crauchet
      Simone Valère
      André Pousse
      让·德赛利 Jean Desailly
      Valérie Wilson
      Henri Marteau
      Jacques Galland


◎标  签 法国 | 梅尔维尔 | 犯罪 | 让-皮埃尔·梅尔维尔 | 法国电影 | AlainDelon | 1972 | 1970s

◎简  介

  以下转摘自:http://bc.cinema.com.hk/adhoc/alain-web/m9.html
  吳宇森《縱橫四海》的原型。阿倫狄龍今趟「改邪歸正」,首次飾演執法者警探高文,為了搗破毒品交易,查案至海邊一個寧靜小鎮,邂逅上美豔的嘉菲(嘉芙蓮丹露)。可惜俊男美女的故事並不是快樂的保證,因為美人兒原來是販賣頭子兼老友的情婦。兩位好友一黑一白,愛上同一個女人,面對友情和愛情,該如何抉擇?梅維爾的簡約主義在本片盡情發揮,精要的對白、短促的場景、極少量的配樂,甚至連阿倫狄龍的演出也比其他電影更為內歛。開首一場械劫案,冷冽得來逼力甚強,借風借雨,營造氣氛,場面調度之精緻,絕非一般的類型片所及。梅維爾在影片拍攝期間已經抱恙,本片也成為導演的最終回。
Video
ID : 1
Format : AVC
Format/Info : Advanced Video Codec
Format profile : High@L4.1
Format settings : CABAC / 4 Ref Frames
Format settings, CABAC : Yes
Format settings, Reference frames : 4 frames
Codec ID : V_MPEG4/ISO/AVC
Duration : 1 h 35 min
Bit rate : 12.3 Mb/s
Width : 1 920 pixels
Height : 1 032 pixels
Display aspect ratio : 1.85:1
Frame rate mode : Constant
Frame rate : 25.000 FPS
Color space : YUV
Chroma subsampling : 4:2:0
Bit depth : 8 bits
Scan type : Progressive
Bits/(Pixel*Frame) : 0.249
Stream size : 8.23 GiB (94%)
Writing library : x264 core 152 r2851 ba24899
Encoding settings : cabac=1 / ref=4 / deblock=1:-3:-3 / analyse=0x3:0x133 / me=umh / subme=9 / psy=1 / psy_rd=1.00:0.00 / mixed_ref=1 / me_range=16 / chroma_me=1 / trellis=2 / 8x8dct=1 / cqm=0 / deadzone=21,11 / fast_pskip=0 / chroma_qp_offset=-2 / threads=24 / lookahead_threads=2 / sliced_threads=0 / nr=0 / decimate=1 / interlaced=0 / bluray_compat=0 / constrained_intra=0 / bframes=3 / b_pyramid=2 / b_adapt=1 / b_bias=0 / direct=3 / weightb=1 / open_gop=0 / weightp=2 / keyint=250 / keyint_min=25 / scenecut=40 / intra_refresh=0 / rc_lookahead=50 / rc=2pass / mbtree=1 / bitrate=12340 / ratetol=1.0 / qcomp=0.60 / qpmin=0 / qpmax=69 / qpstep=4 / cplxblur=20.0 / qblur=0.5 / ip_ratio=1.40 / aq=1:1.00
Language : English
Default : Yes
Forced : No

Audio
ID : 2
Format : DTS
Format/Info : Digital Theater Systems
Codec ID : A_DTS
Duration : 1 h 35 min
Bit rate mode : Constant
Bit rate : 768 kb/s
Channel(s) : 2 channels
Channel layout : L R
Sampling rate : 48.0 kHz
Frame rate : 93.750 FPS (512 SPF)
Bit depth : 24 bits
Compression mode : Lossy
Stream size : 525 MiB (6%)
Language : French
Default : Yes
Forced : No

Text
ID : 3
Format : UTF-8
Codec ID : S_TEXT/UTF8
Codec ID/Info : UTF-8 Plain Text
Duration : 1 h 35 min
Bit rate : 15 b/s
Count of elements : 398
Stream size : 10.7 KiB (0%)
Title : English
Language : English
Default : Yes
Forced : Yes

Menu
00:00:00.000 : en:00:00:00.000
00:07:18.840 : en:00:07:18.840
00:16:55.720 : en:00:16:55.720
00:22:41.560 : en:00:22:41.560
00:31:41.280 : en:00:31:41.280
00:38:40.960 : en:00:38:40.960
00:44:52.640 : en:00:44:52.640
00:55:08.800 : en:00:55:08.800
01:06:18.120 : en:01:06:18.120
01:11:01.960 : en:01:11:01.960
01:18:28.280 : en:01:18:28.280
01:27:14.720 : en:01:27:14.720

76b2666cde319dc8903a13a447ac5d46.jpeg


游客,如果您要查看本帖隐藏内容请回复
发表于 2020-7-29 22:24:47 | 显示全部楼层
楼主辛苦了,谢谢首发之家!!
您需要登录后才可以回帖 登录 | 立即注册 用百度帐号登录

本版积分规则

手机版

轻松易点,迅速到家!

官方微信

扫描二维码,即刻与小易亲密互动,还有劲爆优惠等你来拿!

订阅QQ邮件

第一手促销资讯,尊享邮件特惠商品,优惠不错过!

广告招商QQ:2295479776|小黑屋|手机版|首发之家论坛 |网站地图

GMT+8, 2020-8-12 10:48 , Processed in 0.123099 second(s), 26 queries , XCache On.

Powered by Discuz! X3.4

@ 2001-2013 Comsenz Inc.

快速回复 返回顶部 返回列表