立即注册
 找回密码
 立即注册

扫一扫,访问微社区

用百度帐号登录

只需两步,快速登录

查看: 356|回复: 2

[剧情] 赌徒鲍伯 Bob.le.Flambeur.1956.1080p.BluRay.x264-USURY 9.85GB

[复制链接]
发表于 2020-7-27 10:04:33 | 显示全部楼层 |阅读模式
帖子完整标题:赌徒鲍伯 Bob.le.Flambeur.1956.1080P.BluRay.x264-USURY 9.85GB



7d3d8c98f5eb1e9636ae0df08fd87d16.jpeg

◎译  名 赌徒鲍伯 / Bob the Gambler / Fever Heat / 发热 / 大盗鲍伯
◎片  名 Bob le flambeur
◎年  代 1956
◎产  地 法国
◎类  别 剧情 / 犯罪
◎语  言 法语 / 英语
◎上映日期 1956-08-24
◎IMDb评分 7.7/10 from 10492 users
◎IMDb链接 https://www.imdb.com/title/tt0047892
◎豆瓣评分 7.4/10 from 1277 users
◎豆瓣链接 https://movie.douban.com/subject/1299521/
◎片  长 98 分钟
◎导  演 Jean-Pierre Melville
◎编  剧 Auguste Le Breton / Jean-Pierre Melville
◎主  演 Roger Duchesne
      Isabelle Corey
      Daniel Cauchy
      Jean-Pierre Melville


◎标  签 法国 | 梅尔维尔 | 法国电影 | 让-皮埃尔·梅尔维尔 | 1956 | 1950s | 黑色电影 | 犯罪

◎简  介

  鲍伯是一个赌徒,年纪不小,运气却不好。本片描写他的好友—一个高级警官,跟朋友计划抢劫一家赌场的故事,发生在夜晚的巴黎蒙马特区的暗处。原以为计划天衣无缝的鲍伯走进赌场开始赌博,却不知道那些警察早已经伺机等在一旁了。
Video
ID : 1
Format : AVC
Format/Info : Advanced Video Codec
Format profile : High@L4.1
Format settings : CABAC / 4 Ref Frames
Format settings, CABAC : Yes
Format settings, Reference frames : 4 frames
Codec ID : V_MPEG4/ISO/AVC
Duration : 1 h 42 min
Bit rate : 13.0 Mb/s
Width : 1 488 pixels
Height : 1 080 pixels
Display aspect ratio : 1.378
Frame rate mode : Constant
Frame rate : 24.000 FPS
Color space : YUV
Chroma subsampling : 4:2:0
Bit depth : 8 bits
Scan type : Progressive
Bits/(Pixel*Frame) : 0.337
Stream size : 9.28 GiB (94%)
Writing library : x264 core 152 r2851 ba24899
Encoding settings : cabac=1 / ref=4 / deblock=1:-3:-3 / analyse=0x3:0x133 / me=umh / subme=9 / psy=1 / psy_rd=1.00:0.00 / mixed_ref=1 / me_range=16 / chroma_me=1 / trellis=2 / 8x8dct=1 / cqm=0 / deadzone=21,11 / fast_pskip=0 / chroma_qp_offset=-2 / threads=24 / lookahead_threads=2 / sliced_threads=0 / nr=0 / decimate=1 / interlaced=0 / bluray_compat=0 / constrained_intra=0 / bframes=3 / b_pyramid=2 / b_adapt=1 / b_bias=0 / direct=3 / weightb=1 / open_gop=0 / weightp=2 / keyint=240 / keyint_min=24 / scenecut=40 / intra_refresh=0 / rc_lookahead=50 / rc=2pass / mbtree=1 / bitrate=12994 / ratetol=1.0 / qcomp=0.60 / qpmin=0 / qpmax=69 / qpstep=4 / cplxblur=20.0 / qblur=0.5 / ip_ratio=1.40 / aq=1:1.00
Language : English
Default : Yes
Forced : No

Audio
ID : 2
Format : DTS
Format/Info : Digital Theater Systems
Codec ID : A_DTS
Duration : 1 h 42 min
Bit rate mode : Constant
Bit rate : 768 kb/s
Channel(s) : 2 channels
Channel layout : L R
Sampling rate : 48.0 kHz
Frame rate : 93.750 FPS (512 SPF)
Bit depth : 24 bits
Compression mode : Lossy
Stream size : 562 MiB (6%)
Language : French
Default : Yes
Forced : No

Text
ID : 3
Format : UTF-8
Codec ID : S_TEXT/UTF8
Codec ID/Info : UTF-8 Plain Text
Duration : 1 h 41 min
Bit rate : 36 b/s
Count of elements : 1005
Stream size : 26.8 KiB (0%)
Title : English
Language : English
Default : Yes
Forced : Yes

Menu
00:00:00.000 : en:00:00:00.000
00:08:12.792 : en:00:08:12.792
00:21:36.917 : en:00:21:36.917
00:29:57.625 : en:00:29:57.625
00:41:11.625 : en:00:41:11.625
00:47:42.000 : en:00:47:42.000
00:54:28.625 : en:00:54:28.625
00:59:44.375 : en:00:59:44.375
01:04:29.000 : en:01:04:29.000
01:11:06.542 : en:01:11:06.542
01:21:58.542 : en:01:21:58.542
01:35:22.917 : en:01:35:22.917
9c90c58a2918e9709edd62ef66e3b313.jpeg

游客,如果您要查看本帖隐藏内容请回复
发表于 2020-7-29 22:25:08 | 显示全部楼层
楼主辛苦了,谢谢首发之家!!
发表于 7 天前 | 显示全部楼层
楼主辛苦了,感谢首发之荚丁!
您需要登录后才可以回帖 登录 | 立即注册 用百度帐号登录

本版积分规则

手机版

轻松易点,迅速到家!

官方微信

扫描二维码,即刻与小易亲密互动,还有劲爆优惠等你来拿!

订阅QQ邮件

第一手促销资讯,尊享邮件特惠商品,优惠不错过!

广告招商QQ:2295479776|小黑屋|手机版|首发之家论坛 |网站地图

GMT+8, 2020-8-9 13:23 , Processed in 0.123401 second(s), 26 queries , XCache On.

Powered by Discuz! X3.4

@ 2001-2013 Comsenz Inc.

快速回复 返回顶部 返回列表