立即注册
 找回密码
 立即注册

扫一扫,访问微社区

用百度帐号登录

只需两步,快速登录

查看: 317|回复: 1

[剧情] 眼线 Le.Doulos.1963.1080p.BluRay.x264-USURY 10.94GB

[复制链接]
发表于 2020-7-27 10:03:53 | 显示全部楼层 |阅读模式
32a46a387acad866902f4777dab3534a.jpeg

◎译  名 眼线 / Doulos: The Finger Man
◎片  名 Le doulos
◎年  代 1962
◎产  地 法国 / 意大利
◎类  别 剧情 / 惊悚 / 犯罪
◎语  言 法语
◎上映日期 1962-12-13
◎IMDb评分 7.8/10 from 8984 users
◎IMDb链接 https://www.imdb.com/title/tt0054821
◎豆瓣评分 8.0/10 from 1551 users
◎豆瓣链接 https://movie.douban.com/subject/1466414/
◎片  长 108 分钟
◎导  演 Jean-Pierre Melville
◎编  剧 Jean-Pierre Melville
◎主  演 Jean-Paul Belmondo
      Serge Reggiani
      Jean Desailly
      René Lefèvre


◎标  签 法国 | 梅尔维尔 | 犯罪 | 让-皮埃尔·梅尔维尔 | 黑色电影 | 法国电影 | 1960s | Jean-Pierre_Melville

◎简  介

  黑暗中,一个身着风衣的神秘男人在通道中穿行。他就是莫里斯(塞吉·赫吉安尼Serge Reggiani饰),一个刚刚出狱却仍依靠偷窃为生的盗贼。为了清算以前的旧债,他准备跟他的朋友西里安(让-保罗·贝尔蒙多 Jean Paul Belmondo饰)再干一桩偷窃案。不料行事时警察却突然而至,莫里斯再次入狱。不明就里的莫里斯认定西里安是警察的眼线,开始寻机报复。而西里安并非警方的线人,真正的卧底另有其人。与此同时,西里安也正开始实施自己的大胆计划。
  由世界影坛最负盛名的黑色电影大师让-皮埃尔·梅尔维尔执导的经典犯罪悬疑电影《眼线》,根据1946年出版的小说《犯罪系列》改编而成。
Video
ID : 1
Format : AVC
Format/Info : Advanced Video Codec
Format profile : High@L4.1
Format settings : CABAC / 4 Ref Frames
Format settings, CABAC : Yes
Format settings, Reference frames : 4 frames
Codec ID : V_MPEG4/ISO/AVC
Duration : 1 h 48 min
Bit rate : 13.6 Mb/s
Width : 1 808 pixels
Height : 1 080 pixels
Display aspect ratio : 5:3
Frame rate mode : Constant
Frame rate : 24.000 FPS
Color space : YUV
Chroma subsampling : 4:2:0
Bit depth : 8 bits
Scan type : Progressive
Bits/(Pixel*Frame) : 0.290
Stream size : 10.3 GiB (95%)
Writing library : x264 core 152 r2851 ba24899
Encoding settings : cabac=1 / ref=4 / deblock=1:-3:-3 / analyse=0x3:0x133 / me=umh / subme=9 / psy=1 / psy_rd=1.00:0.00 / mixed_ref=1 / me_range=16 / chroma_me=1 / trellis=2 / 8x8dct=1 / cqm=0 / deadzone=21,11 / fast_pskip=0 / chroma_qp_offset=-2 / threads=24 / lookahead_threads=2 / sliced_threads=0 / nr=0 / decimate=1 / interlaced=0 / bluray_compat=0 / constrained_intra=0 / bframes=3 / b_pyramid=2 / b_adapt=1 / b_bias=0 / direct=3 / weightb=1 / open_gop=0 / weightp=2 / keyint=240 / keyint_min=24 / scenecut=40 / intra_refresh=0 / rc_lookahead=50 / rc=2pass / mbtree=1 / bitrate=13581 / ratetol=1.0 / qcomp=0.60 / qpmin=0 / qpmax=69 / qpstep=4 / cplxblur=20.0 / qblur=0.5 / ip_ratio=1.40 / aq=1:1.00
Language : English
Default : Yes
Forced : No

Audio
ID : 2
Format : DTS
Format/Info : Digital Theater Systems
Codec ID : A_DTS
Duration : 1 h 48 min
Bit rate mode : Constant
Bit rate : 768 kb/s
Channel(s) : 2 channels
Channel layout : L R
Sampling rate : 48.0 kHz
Frame rate : 93.750 FPS (512 SPF)
Bit depth : 24 bits
Compression mode : Lossy
Stream size : 598 MiB (5%)
Language : French
Default : Yes
Forced : No

Text
ID : 3
Format : UTF-8
Codec ID : S_TEXT/UTF8
Codec ID/Info : UTF-8 Plain Text
Duration : 1 h 48 min
Bit rate : 32 b/s
Count of elements : 897
Stream size : 26.1 KiB (0%)
Title : English
Language : English
Default : Yes
Forced : Yes

Menu
00:00:00.000 : en:00:00:00.000
00:05:02.000 : en:00:05:02.000
00:16:05.250 : en:00:16:05.250
00:24:34.500 : en:00:24:34.500
00:29:37.167 : en:00:29:37.167
00:36:20.083 : en:00:36:20.083
00:40:39.208 : en:00:40:39.208
00:51:22.875 : en:00:51:22.875
01:00:58.583 : en:01:00:58.583
01:12:40.000 : en:01:12:40.000
01:26:47.792 : en:01:26:47.792
01:41:35.667 : en:01:41:35.667

6795ec790d15c06b6b446706d1aebccc.jpeg
游客,如果您要查看本帖隐藏内容请回复
发表于 2020-7-29 22:25:30 | 显示全部楼层
楼主辛苦了,谢谢首发之家!!
您需要登录后才可以回帖 登录 | 立即注册 用百度帐号登录

本版积分规则

手机版

轻松易点,迅速到家!

官方微信

扫描二维码,即刻与小易亲密互动,还有劲爆优惠等你来拿!

订阅QQ邮件

第一手促销资讯,尊享邮件特惠商品,优惠不错过!

广告招商QQ:2295479776|小黑屋|手机版|首发之家论坛 |网站地图

GMT+8, 2020-8-12 10:55 , Processed in 0.142702 second(s), 26 queries , XCache On.

Powered by Discuz! X3.4

@ 2001-2013 Comsenz Inc.

快速回复 返回顶部 返回列表