立即注册
 找回密码
 立即注册

扫一扫,访问微社区

用百度帐号登录

只需两步,快速登录

查看: 542|回复: 3

[剧情] 约瑟夫之子 The.Son.of.Joseph.2016.LIMITED.1080p.BluRay.x264-USURY 12.02GB

[复制链接]
发表于 2020-7-27 10:02:53 | 显示全部楼层 |阅读模式
帖子完整标题:约瑟夫之子 The.Son.of.Joseph.2016.LIMITED.1080P.BluRay.x264-USURY 12.02GB





◎译  名 约瑟夫之子 / The Son of Joseph / 我爸是若瑟(港)
◎片  名 Le fils de Joseph
◎年  代 2016
◎产  地 法国 / 比利时
◎类  别 剧情
◎语  言 法语
◎上映日期 2016-02-12(柏林电影节) / 2016-04-20(法国)
◎IMDb评分 6.5/10 from 759 users
◎IMDb链接 https://www.imdb.com/title/tt4741774
◎豆瓣评分 6.9/10 from 340 users
◎豆瓣链接 https://movie.douban.com/subject/26420616/
◎片  长 113分钟
◎导  演 尤金·格林 Eugène Green
◎编  剧 尤金·格林 Eugène Green
◎主  演 维克多·厄曾菲斯 Victor Ezenfis
      娜塔莎·雷尼埃 Natacha Régnier
      法布里齐奥·隆吉奥内 Fabrizio Rongione
      马修·阿马立克 Mathieu Amalric
      玛丽亚·德·梅黛洛 Maria de Medeiros
      朱莉娅·格罗斯·德·加斯奎特 Julia Gros de Gasquet
      贾克·鲍那非 Jacques Bonnaffé
      克里斯泰勒·普洛特 Christelle Prot
      阿德里安·米肖 Adrien Michaux


◎标  签 法国 | 2016 | 比利时 | 家庭 | 剧情 | 宗教 | 文艺 | 亲情

◎简  介

  主人公一直和母亲住在一起,从不知道自己的父亲是谁。在几经斟酌之后,一场精彩纷呈的寻父大冒险正式展开的《约瑟夫之子》。
Video
ID : 1
Format : AVC
Format/Info : Advanced Video Codec
Format profile : High@L4.1
Format settings : CABAC / 4 Ref Frames
Format settings, CABAC : Yes
Format settings, Reference frames : 4 frames
Codec ID : V_MPEG4/ISO/AVC
Duration : 1 h 53 min
Bit rate : 13.6 Mb/s
Width : 1 920 pixels
Height : 1 040 pixels
Display aspect ratio : 1.85:1
Frame rate mode : Constant
Frame rate : 23.976 (24000/1001/189150) FPS
Color space : YUV
Chroma subsampling : 4:2:0
Bit depth : 8 bits
Scan type : Progressive
Bits/(Pixel*Frame) : 0.285
Stream size : 10.8 GiB (90%)
Writing library : x264 core 152 r2851 ba24899
Encoding settings : cabac=1 / ref=4 / deblock=1:-3:-3 / analyse=0x3:0x133 / me=umh / subme=9 / psy=1 / psy_rd=1.00:0.00 / mixed_ref=1 / me_range=16 / chroma_me=1 / trellis=2 / 8x8dct=1 / cqm=0 / deadzone=21,11 / fast_pskip=0 / chroma_qp_offset=-2 / threads=18 / lookahead_threads=1 / sliced_threads=0 / nr=0 / decimate=1 / interlaced=0 / bluray_compat=0 / constrained_intra=0 / bframes=3 / b_pyramid=2 / b_adapt=1 / b_bias=0 / direct=3 / weightb=1 / open_gop=0 / weightp=2 / keyint=240 / keyint_min=24 / scenecut=40 / intra_refresh=0 / rc_lookahead=50 / rc=2pass / mbtree=1 / bitrate=13626 / ratetol=1.0 / qcomp=0.60 / qpmin=0 / qpmax=69 / qpstep=4 / cplxblur=20.0 / qblur=0.5 / ip_ratio=1.40 / aq=1:1.00
Language : English
Default : Yes
Forced : No

Audio
ID : 2
Format : DTS
Format/Info : Digital Theater Systems
Codec ID : A_DTS
Duration : 1 h 53 min
Bit rate mode : Constant
Bit rate : 1 509 kb/s
Channel(s) : 6 channels
Channel layout : C L R Ls Rs LFE
Sampling rate : 48.0 kHz
Frame rate : 93.750 FPS (512 SPF)
Bit depth : 24 bits
Compression mode : Lossy
Stream size : 1.20 GiB (10%)
Language : French
Default : Yes
Forced : No

Text
ID : 3
Format : UTF-8
Codec ID : S_TEXT/UTF8
Codec ID/Info : UTF-8 Plain Text
Duration : 1 h 49 min
Bit rate : 33 b/s
Count of elements : 964
Stream size : 27.1 KiB (0%)
Title : English
Language : English
Default : Yes
Forced : Yes

Menu
00:00:00.000 : en:00:00:00.000
00:15:32.807 : en:00:15:32.807
00:21:50.351 : en:00:21:50.351
00:32:08.051 : en:00:32:08.051
00:47:19.670 : en:00:47:19.670
01:02:10.644 : en:01:02:10.644
01:11:46.135 : en:01:11:46.135
01:20:13.267 : en:01:20:13.267
01:30:15.660 : en:01:30:15.660
01:40:42.578 : en:01:40:42.578




游客,如果您要查看本帖隐藏内容请回复
发表于 2020-7-27 11:34:20 | 显示全部楼层
楼主辛苦了,谢谢首发之家!
发表于 2020-7-29 22:25:56 | 显示全部楼层
楼主辛苦了,谢谢首发之家!!
发表于 2020-7-31 15:40:16 | 显示全部楼层
thank you very much.
您需要登录后才可以回帖 登录 | 立即注册 用百度帐号登录

本版积分规则

手机版

轻松易点,迅速到家!

官方微信

扫描二维码,即刻与小易亲密互动,还有劲爆优惠等你来拿!

订阅QQ邮件

第一手促销资讯,尊享邮件特惠商品,优惠不错过!

广告招商QQ:2295479776|小黑屋|手机版|首发之家论坛 |网站地图

GMT+8, 2020-8-9 13:26 , Processed in 0.131179 second(s), 26 queries , XCache On.

Powered by Discuz! X3.4

@ 2001-2013 Comsenz Inc.

快速回复 返回顶部 返回列表