立即注册
 找回密码
 立即注册

扫一扫,访问微社区

用百度帐号登录

只需两步,快速登录

查看: 372|回复: 21

[动作] 绝地战警:疾速追击 Bad.Boys.for.Life.2020.1080p.HDRip.x264.AAC2.0-STUTTERSHIT ...

[复制链接]
发表于 2020-3-31 03:40:33 | 显示全部楼层 |阅读模式
帖子完整标题:绝地战警:疾速追击 Bad.Boys.for.Life.2020.1080P.HDRip.x264.AAC2.0-STUTTERSHIT 3.47GB
19b6b766f3c21.png


◎译  名 绝地战警:疾速追击 / Bad Boys 3 / 绝地战警3 / 绝地战警FOR LIFE(台) / 重案梦幻再重组(港)
◎片  名 Bad Boys for Life
◎年  代 2020
◎产  地 美国
◎类  别 喜剧 / 动作 / 犯罪
◎语  言 英语
◎上映日期 2020(中国大陆) / 2020-01-17(美国)
◎IMDb评分 7.2/10 from 45081 users
◎IMDb链接 https://www.imdb.com/title/tt1502397
◎豆瓣评分 6.8/10 from 5030 users
◎豆瓣链接 https://movie.douban.com/subject/4014397/
◎片  长 124分钟
◎导  演 阿迪尔·埃尔·阿比 Adil El Arbi / 比拉勒·法拉赫 Bilall Fallah
◎编  剧 克里斯·布雷姆纳 Chris Bremner / 乔·卡纳汉 Joe Carnahan / 乔治·加洛 George Gallo / 大卫·古根海姆 David Guggenheim / 安东尼·塔姆巴基斯 Anthony Tambakis
◎主  演 威尔·史密斯 Will Smith
      马丁·劳伦斯 Martin Lawrence
      凡妮莎·哈金斯 Vanessa Hudgens
      亚历山大·路德韦格 Alexander Ludwig
      乔·潘托里亚诺 Joe Pantoliano
      海皮·安德森 Happy Anderson
      查尔斯·梅尔顿 Charles Melton
      凯特·德尔·卡斯蒂洛 Kate del Castillo
      葆拉·努涅斯 Paola Nú?ez
      Sharon Pfeiffer
      DJ卡拉德 DJ Khaled
      Jennifer Badger
      Massi Furlan
      玛丽亚·Z·威尔逊 Maria Z. Wilson
      Emily Towles
      伊沃·南迪 Ivo Nandi
      大卫·莫拉蒂 David Moretti
      安东尼·莫利纳利 Anthony Molinari
      汉斯·马雷罗 Hans Marrero
      Troy Brenna
      巴迪·沃特金斯 Buddy Watkins
      David L. Marston
      约翰·盖蒂尔 John Gettier
      塞尔吉奥·布里奥内斯 Sergio Briones
      卡洛斯·格雷罗 Carlos Guerrero
      德里克?吉尔伯特 Derrick Gilbert
      Chick Bernhardt


◎标  签 动作 | 美国 | 喜剧 | 犯罪 | 2020 | 黑色幽默 | 搞笑 | WillSmith

◎简  介

  曾制作《珍珠港》、《壮志凌云》、《加勒比海盗》系列等爆款电影的好莱坞金牌制片人全新倾力打造的《绝地战警:疾速追击》,讲述了迈阿密警员麦克(威尔·史密斯饰)遭遇神秘黑帮势力的暗杀伏击,为了迎战势力庞大火力惊人的黑帮分子,解决隐藏在暗处的危机,麦克找回曾经的搭档马库斯(马丁·劳伦斯饰),“嘴炮二人组”再度集结开启沙雕模式,不仅时刻上演逗比互怼,更在迈阿密街头与黑帮展开空前绝后的飙车枪战大戏。这对最佳搭档究竟能否在枪林弹雨下突出重围,找出幕后黑手完成绝地反杀?
  1. Video
  2. ID : 1
  3. Format : AVC
  4. Format/Info : Advanced Video Codec
  5. Format profile : <a href="mailto:High@L4.1" target="_blank">High@L4.1</a>
  6. Format settings : CABAC / 4 Ref Frames
  7. Format settings, CABAC : Yes
  8. Format settings, Reference frames : 4 frames
  9. Codec ID : V_MPEG4/ISO/AVC
  10. Duration : 2 h 2 min
  11. Bit rate : 3 781 kb/s
  12. Width : 1 920 pixels
  13. Height : 800 pixels
  14. Display aspect ratio : 2.40:1
  15. Frame rate mode : Constant
  16. Frame rate : 29.970 (30000/1001/189150) FPS
  17. Color space : YUV
  18. Chroma subsampling : 4:2:0
  19. Bit depth : 8 bits
  20. Scan type : Progressive
  21. Bits/(Pixel*Frame) : 0.082
  22. Stream size : 3.24 GiB (94%)
  23. Title : Bad.Boys.for.Life.2020.1080p.HDRip.x264.AAC2.0-STUTTERSHIT
  24. Language : English
  25. Default : Yes
  26. Forced : No
  27. Color range : Limited
  28. Color primaries : BT.709
  29. Transfer characteristics : BT.709
  30. Matrix coefficients : BT.709
  31. Audio
  32. ID : 2
  33. Format : AAC LC
  34. Format/Info : Advanced Audio Codec Low Complexity
  35. Codec ID : A_AAC-2
  36. Duration : 2 h 2 min
  37. Bit rate : 256 kb/s
  38. Channel(s) : 2 channels
  39. Channel layout : L R
  40. Sampling rate : 48.0 kHz
  41. Frame rate : 46.875 FPS (1024 SPF)
  42. Compression mode : Lossy
  43. Stream size : 225 MiB (6%)
  44. Title : Bad.Boys.for.Life.2020.1080p.HDRip.x264.AAC2.0-STUTTERSHIT
  45. Language : English
  46. Default : Yes
  47. Forced : No
  48. Text #1
  49. ID : 3
  50. Format : UTF-8
  51. Codec ID : S_TEXT/UTF8
  52. Codec ID/Info : UTF-8 Plain Text
  53. Duration : 1 h 57 min
  54. Bit rate : 61 b/s
  55. Count of elements : 1765
  56. Stream size : 52.9 KiB (0%)
  57. Language : English
  58. Default : Yes
  59. Forced : No
  60. Text #2
  61. ID : 4
  62. Format : UTF-8
  63. Codec ID : S_TEXT/UTF8
  64. Codec ID/Info : UTF-8 Plain Text
  65. Duration : 2 h 1 min
  66. Bit rate : 71 b/s
  67. Count of elements : 2225
  68. Stream size : 63.0 KiB (0%)
  69. Title : SDH
  70. Language : English
  71. Default : No
  72. Forced : No
复制代码

b977dc9ca646e.png e3da82c1c4089.png 7e94c22d01d02.png
游客,如果您要查看本帖隐藏内容请回复
发表于 2020-3-31 07:33:35 | 显示全部楼层
顶顶顶顶顶顶顶顶顶
发表于 2020-3-31 08:08:53 | 显示全部楼层
楼主辛苦了,谢谢首发之家!!
发表于 2020-3-31 08:21:37 | 显示全部楼层
下了那客服那里发生的地方
发表于 2020-3-31 08:23:15 | 显示全部楼层
11111111111111111111111111111111
发表于 2020-3-31 08:28:38 | 显示全部楼层
楼主辛苦了,谢谢首发之家!!
发表于 2020-3-31 08:44:17 | 显示全部楼层
楼主辛苦了,谢谢首发之家!!
发表于 2020-3-31 08:45:31 | 显示全部楼层
绝地战警:疾速追击绝地战警:疾速追击
发表于 2020-3-31 09:55:42 | 显示全部楼层

楼主辛苦了,谢谢首发之家!
您需要登录后才可以回帖 登录 | 立即注册 用百度帐号登录

本版积分规则

手机版

轻松易点,迅速到家!

官方微信

扫描二维码,即刻与小易亲密互动,还有劲爆优惠等你来拿!

订阅QQ邮件

第一手促销资讯,尊享邮件特惠商品,优惠不错过!

广告招商QQ:2295479776|小黑屋|手机版|首发之家论坛 |网站地图

GMT+8, 2020-5-31 21:22 , Processed in 0.126039 second(s), 25 queries , XCache On.

Powered by Discuz! X3.4

@ 2001-2013 Comsenz Inc.

快速回复 返回顶部 返回列表