立即注册
 找回密码
 立即注册

扫一扫,访问微社区

用百度帐号登录

只需两步,快速登录

查看: 183|回复: 4

[剧情] 硬汉/翻天覆地黑蛟龙 Villain.1971.1080p.BluRay.REMUX.AVC.LPCM.2.0-FGT 24.77GB

[复制链接]
发表于 2020-3-31 03:33:43 | 显示全部楼层 |阅读模式
b1814628ef621.png
◎译  名 硬汉 / 翻天覆地黑蛟龙
◎片  名 Villain
◎年  代 1971
◎产  地 英国
◎类  别 剧情 / 犯罪
◎语  言 英语
◎上映日期 1971-05-26
◎IMDb评分 6.6/10 from 1177 users
◎IMDb链接 https://www.imdb.com/title/tt0067952
◎豆瓣评分 0/10 from 0 users
◎豆瓣链接 https://movie.douban.com/subject/1299459/
◎片  长 98 分钟
◎导  演 迈克尔·塔克纳 Michael Tuchner
◎编  剧 艾尔·勒提埃里 Al Lettieri / 迪克·克莱蒙特 Dick Clement / 伊安·拉·弗雷奈斯 Ian La Frenais
◎主  演 理查德·伯顿 Richard Burton
      伊恩·麦柯肖恩 Ian McShane
      奈杰尔·达文波特 Nigel Davenport
      唐纳德·辛顿 Donald Sinden
      菲奥娜·刘易斯 Fiona Lewis
      乔斯·雅克兰德 Joss Ackland


◎标  签 英国 | RichardBurton | 英國 | 犯罪 | 70 | 1971 | 英 | 稀缺但看过

◎简  介

  此片为米高特克纳的导演处女作。讲述一名具有不良嗜好的黑社会头子(李察波顿饰),在伦敦东区特势横行,最后在抢劫工厂的事件中被捕。卖弄血腥而主题暧昧的黑社会片,主角的造型和言行都有点阴阳怪气,看来令人不悦。
Video
ID : 1
Format : AVC
Format/Info : Advanced Video Codec
Format profile : High@L4.1
Format settings : CABAC / 4 Ref Frames
Format settings, CABAC : Yes
Format settings, Reference frames : 4 frames
Codec ID : V_MPEG4/ISO/AVC
Duration : 1 h 37 min
Bit rate mode : Variable
Bit rate : 33.9 Mb/s
Maximum bit rate : 38.0 Mb/s
Width : 1 920 pixels
Height : 1 080 pixels
Display aspect ratio : 16:9
Frame rate mode : Constant
Frame rate : 24.000 FPS
Color space : YUV
Chroma subsampling : 4:2:0
Bit depth : 8 bits
Scan type : Progressive
Bits/(Pixel*Frame) : 0.681
Stream size : 23.2 GiB (94%)
Title : Villain.1971.1080P.BluRay.REMUX.AVC.LPCM.2.0-FGT
Language : English
Default : No
Forced : No

Audio
ID : 2
Format : PCM
Format settings : Little / Signed
Codec ID : A_PCM/INT/LIT
Duration : 1 h 37 min
Bit rate mode : Constant
Bit rate : 2 304 kb/s
Channel(s) : 2 channels
Sampling rate : 48.0 kHz
Frame rate : 30.000 FPS (1600 SPF)
Bit depth : 24 bits
Stream size : 1.58 GiB (6%)
Title : Villain.1971.1080p.BluRay.REMUX.AVC.LPCM.2.0-FGT
Language : English
Default : Yes
Forced : No

Text
ID : 3
Format : PGS
Muxing mode : zlib
Codec ID : S_HDMV/PGS
Codec ID/Info : Picture based subtitle format used on BDs/HD-DVDs
Duration : 1 h 36 min
Bit rate : 33.0 kb/s
Count of elements : 2470
Stream size : 22.7 MiB (0%)
Title : English-PGS
Language : English
Default : Yes
Forced : No

Menu
00:00:00.000 : en:Chapter 01
00:07:06.833 : en:Chapter 02
00:14:53.333 : en:Chapter 03
00:23:51.125 : en:Chapter 04
00:32:39.916 : en:Chapter 05
00:40:24.541 : en:Chapter 06
00:50:41.125 : en:Chapter 07
00:56:49.625 : en:Chapter 08
01:06:59.541 : en:Chapter 09
01:14:42.166 : en:Chapter 10
01:23:42.333 : en:Chapter 11
01:31:28.958 : en:Chapter 12

4e2b6a2d216bb.png 43efb6f57ba70.png c7a67165c070f.png
游客,如果您要查看本帖隐藏内容请回复
发表于 2020-3-31 08:14:11 | 显示全部楼层
首发之家不能没有像楼主这样的人才!
发表于 2020-4-2 22:30:52 | 显示全部楼层
楼主辛苦了,谢谢首发之家!!
发表于 2020-4-6 19:33:09 | 显示全部楼层
楼主辛苦了,谢谢首发之家!!
发表于 2020-5-19 21:06:23 | 显示全部楼层
鬼打鬼的高度改单费广东省
您需要登录后才可以回帖 登录 | 立即注册 用百度帐号登录

本版积分规则

手机版

轻松易点,迅速到家!

官方微信

扫描二维码,即刻与小易亲密互动,还有劲爆优惠等你来拿!

订阅QQ邮件

第一手促销资讯,尊享邮件特惠商品,优惠不错过!

广告招商QQ:2295479776|小黑屋|手机版|首发之家论坛 |网站地图

GMT+8, 2020-5-29 11:02 , Processed in 0.115443 second(s), 25 queries , XCache On.

Powered by Discuz! X3.4

@ 2001-2013 Comsenz Inc.

快速回复 返回顶部 返回列表