立即注册
 找回密码
 立即注册

扫一扫,访问微社区

用百度帐号登录

只需两步,快速登录

查看: 286|回复: 9

[动作] [2005][金刚/满屏版][BD-MKV/22.13G][国粤英四语/中英双字][1080P][FFans@星星]

[复制链接]
发表于 2020-3-23 04:10:22 | 显示全部楼层 |阅读模式
cf5bce71b8fa3c508ab8ef4d653c75c4.jpg

◎译  名 金刚/King Kong: The Eighth Wonder of the World
◎片  名 King Kong
◎年  代 2005
◎产  地 新西兰/美国/德国
◎类  别 动作/奇幻/冒险
◎语  言 英语
◎上映日期 2005-12-05(纽约首映)/2005-12-14(美国)/2006-01-12(中国大陆)
◎IMDb评分 7.2/10 from 361,570 users
◎IMDb链接 https://www.imdb.com/title/tt0360717/
◎豆瓣评分 7.8/10 from 203,535 users
◎豆瓣链接 https://douban.com/subject/1309043/
◎片  长 201分钟 本文件时长 3小时03分17秒 即183分17秒
◎导  演 彼得·杰克逊 Peter Jackson
◎编  剧 弗兰·威尔士 Fran Walsh / 菲利帕·鲍恩斯 Philippa Boyens / 彼得·杰克逊 Peter Jackson / 梅里安·C·库珀 Merian C. Cooper / 埃德加·华莱士 Edgar Wallace
◎主  演 娜奥米·沃茨 Naomi Watts
      杰克·布莱克 Jack Black
      艾德里安·布洛迪 Adrien Brody
      托马斯·克莱舒曼 Thomas Kretschmann
      科林·汉克斯 Colin Hanks
      安迪·瑟金斯 Andy Serkis
      伊万·帕克 Evan Parke
      杰米·贝尔 Jamie Bell
      洛博·陈 Lobo Chan
      约翰·萨莫尔 John Sumner
      克里格·霍尔 Craig Hall
      凯尔·钱德勒 Kyle Chandler
      威廉·约翰逊 William Johnson
      马克·哈德洛 Mark Hadlow
      杰拉丁·博若飞 Geraldine Brophy
      大卫·皮图 David Pittu

◎标  签 科幻 | 美国 | 爱情 | 金刚 | 经典 | 魔幻 | 电影 | 2005

◎简  介

  导演率领拍摄组来到神秘的骷髅岛开始了一部电影的拍摄,女主角是漂亮娇小的安(娜奥米•沃茨 Naomi Watts 饰),她在纽约的演艺事业陷入了低谷,这是她时来运转的大好机会。他们乘坐轮船来到岛上,却不知在岛上即将要险象横生。
  正当导演要开始开机拍摄时,他们遭到了当地土著的袭击,几个随行人员遇难身亡。摄制组慌忙逃离,幸好起航离去,却发现不见了女主角安。
  原来安土著野人抓走,被当作祭品。安尖声惊叫,引来了传说中骷髅岛的猩猩——金刚的关注。金刚在岛上很有霸气,连恐龙都要忌它几分。然而,野兽爱上了美人,金刚搭救安脱离困境,不料却让自己陷入了一场悲剧。

General

Unique ID                      : 101657613942480339249266534657415209930 (0x4C7A8B55B76417FC0D5BF33045B463CA)

Complete name                  : F:\FFOutput\金刚.满屏内嵌中英.King.Kong.2005.Open.Matte.HD-DVD.1080P.X264.DTS-HD.MA.7.1.Mandarin&Chinese&Cantonese&English.CHS-ENG.FFans&星星\金刚.满屏内嵌中英.King.Kong.2005.Open.Matte.HD-DVD.1080P.X264.DTS-HD.MA.7.1.Mandarin&Chinese&Cantonese&English.CHS-ENG.FFans&星星.mkv

Format                         : Matroska

Format version                 : Version 4

File size                      : 22.1 GiB

Duration                       : 3 h 7 min

Overall bit rate mode          : Variable

Overall bit rate               : 16.9 Mb/s

Encoded date                   : UTC 2020-03-21 16:33:41

Writing application            : mkvmerge v25.0.0 ('Prog Noir') 64-bit

Writing library                : libebml v1.3.6 + libmatroska v1.4.9



Video

ID                             : 1

Format                         : AVC

Format/Info                    : Advanced Video Codec

Format profile                 : High@L4.1

Format settings                : CABAC / 4 Ref Frames

Format settings, CABAC         : Yes

Format settings, ReFrames      : 4 frames

Codec ID                       : V_MPEG4/ISO/AVC

Duration                       : 3 h 3 min

Bit rate                       : 8 964 kb/s

Width                          : 1 920 pixels

Height                         : 1 080 pixels

Display aspect ratio           : 16:9

Frame rate mode                : Constant

Frame rate                     : 23.976 (24000/1001) FPS

Color space                    : YUV

Chroma subsampling             : 4:2:0

Bit depth                      : 8 bits

Scan type                      : Progressive

Bits/(Pixel*Frame)             : 0.180

Stream size                    : 11.5 GiB (52%)

Title                          : 视频码率.8964Kbps

Writing library                : x264 core 157 r2935 545de2f

Encoding settings              : cabac=1 / ref=4 / deblock=1:-3:-3 / analyse=0x3:0x133 / me=umh / subme=10 / psy=1 / psy_rd=1.00:0.00 / mixed_ref=1 / me_range=24 / chroma_me=1 / trellis=2 / 8x8dct=1 / cqm=0 / deadzone=21,11 / fast_pskip=1 / chroma_qp_offset=-2 / threads=24 / lookahead_threads=4 / sliced_threads=0 / nr=0 / decimate=1 / interlaced=0 / bluray_compat=0 / constrained_intra=0 / bframes=8 / b_pyramid=2 / b_adapt=2 / b_bias=0 / direct=3 / weightb=1 / open_gop=0 / weightp=2 / keyint=240 / keyint_min=23 / scenecut=40 / intra_refresh=0 / rc_lookahead=60 / rc=2pass / mbtree=1 / bitrate=8964 / ratetol=1.0 / qcomp=0.60 / qpmin=0 / qpmax=69 / qpstep=4 / cplxblur=20.0 / qblur=0.5 / vbv_maxrate=62500 / vbv_bufsize=78125 / nal_hrd=none / filler=0 / ip_ratio=1.40 / aq=1:1.00

Language                       : English

Default                        : Yes

Forced                         : No



Audio #1

ID                             : 2

Format                         : AC-3

Format/Info                    : Audio Coding 3

Commercial name                : Dolby Digital

Codec ID                       : A_AC3

Duration                       : 3 h 7 min

Bit rate mode                  : Constant

Bit rate                       : 384 kb/s

Channel(s)                     : 6 channels

Channel layout                 : L R C LFE Ls Rs

Sampling rate                  : 48.0 kHz

Frame rate                     : 31.250 FPS (1536 SPF)

Bit depth                      : 16 bits

Compression mode               : Lossy

Delay relative to video        : 2 s 170 ms

Stream size                    : 514 MiB (2%)

Title                          : 北影公映国语.AC3.DD5.1-384Kbps

Language                       : Chinese

Service kind                   : Complete Main

Default                        : No

Forced                         : No



Audio #2

ID                             : 3

Format                         : AC-3

Format/Info                    : Audio Coding 3

Commercial name                : Dolby Digital

Codec ID                       : A_AC3

Duration                       : 3 h 7 min

Bit rate mode                  : Constant

Bit rate                       : 192 kb/s

Channel(s)                     : 2 channels

Channel layout                 : L R

Sampling rate                  : 48.0 kHz

Frame rate                     : 31.250 FPS (1536 SPF)

Bit depth                      : 16 bits

Compression mode               : Lossy

Delay relative to video        : 1 s 260 ms

Stream size                    : 257 MiB (1%)

Title                          : 东影上译国语.AC3.DD2.0-192Kbps

Language                       : Chinese

Service kind                   : Complete Main

Default                        : No

Forced                         : No



Audio #3

ID                             : 4

Format                         : AC-3

Format/Info                    : Audio Coding 3

Commercial name                : Dolby Digital

Codec ID                       : A_AC3

Duration                       : 3 h 7 min

Bit rate mode                  : Constant

Bit rate                       : 192 kb/s

Channel(s)                     : 2 channels

Channel layout                 : L R

Sampling rate                  : 48.0 kHz

Frame rate                     : 31.250 FPS (1536 SPF)

Bit depth                      : 16 bits

Compression mode               : Lossy

Delay relative to video        : 2 s 170 ms

Stream size                    : 260 MiB (1%)

Title                          : TVB粤语.AC3.DD2.0-192Kbps

Language                       : Chinese

Service kind                   : Complete Main

Default                        : No

Forced                         : No



Audio #4

ID                             : 5

Format                         : DTS XLL X

Format/Info                    : Digital Theater Systems

Commercial name                : DTS-HD Master Audio

Codec ID                       : A_DTS

Duration                       : 3 h 7 min

Bit rate mode                  : Variable

Bit rate                       : 7 375 kb/s

Channel(s)                     : 8 channels

Channel(s)_Original            : Object Based

Channel layout                 : Object Based

Sampling rate                  : 48.0 kHz

Frame rate                     : 93.750 FPS (512 SPF)

Bit depth                      : 24 bits

Delay relative to video        : 3 s 295 ms

Stream size                    : 9.65 GiB (44%)

Title                          : 英语.DTS-HD.MA.7.1-7375Kbps

Language                       : English

Default                        : Yes

Forced                         : No
561e22fa922e3931d501204045da6cec.jpg e9601d44d7f5bdfc5e184e6c90f70668.jpg 2ae4559e73e559500fcdf0576b1d971f.jpg 824961f8915ceafff009821708e7ebed.jpg 484ef117fcca85b9e133305688517d08.jpg 48af7cb99479885b5af575eac896cad3.jpg e0da39a687bb2cc571d4ea8208cdd774.jpg f1b58c19fdcfd666c2a3f46099b91611.jpg


链接:https://pan.baidu.com/s/1B7PVDXneRGVKYzSpd-HLQw

提取码:n8l7

因为不是加长版,所以没有加特效字幕。内封版片源的分辨率是1920×1088,没有切黑边(底下多出来8),感兴趣的话自己去鼓捣吧!片源和字幕都给你们了。



游客,如果您要查看本帖隐藏内容请回复
发表于 2020-3-23 09:37:27 | 显示全部楼层
楼主辛苦了,谢谢首发之家!!
发表于 2020-3-23 13:43:26 | 显示全部楼层
楼主辛苦了,感谢首发之荚丁!
发表于 2020-3-23 17:28:25 | 显示全部楼层
欧美经典科幻片下载欣赏欣赏
发表于 2020-3-23 21:08:11 | 显示全部楼层
楼主辛苦了,谢谢首发之家!!
发表于 2020-3-24 01:36:50 | 显示全部楼层
收藏一个,谢谢楼主
发表于 2020-3-24 01:55:52 | 显示全部楼层
RE: [2019][天·火/天火危情][HD-MP4/2.09GB][国语中字][1080P] [[url=]修改[/url]]








发表于 2020-3-25 22:44:36 | 显示全部楼层
楼主辛苦了,谢谢首发之家!!
发表于 2020-3-27 14:59:52 | 显示全部楼层
RE: [2005][金刚/满屏版][BD-MKV/22.13G][国粤英四语/中英双字][1080P][FFans@星星] [[url=]修改[/url]
发表于 7 天前 | 显示全部楼层
首发之家不能没有像楼主这样的人才!
您需要登录后才可以回帖 登录 | 立即注册 用百度帐号登录

本版积分规则

手机版

轻松易点,迅速到家!

官方微信

扫描二维码,即刻与小易亲密互动,还有劲爆优惠等你来拿!

订阅QQ邮件

第一手促销资讯,尊享邮件特惠商品,优惠不错过!

广告招商QQ:2295479776|小黑屋|手机版|首发之家论坛 |网站地图

GMT+8, 2020-4-4 13:05 , Processed in 0.132117 second(s), 24 queries , XCache On.

Powered by Discuz! X3.4

@ 2001-2013 Comsenz Inc.

快速回复 返回顶部 返回列表