立即注册
 找回密码
 立即注册

扫一扫,访问微社区

用百度帐号登录

只需两步,快速登录

查看: 203|回复: 3

[剧情] 秃鹰 Buzzard.2014.1080p.BluRay.x264-SPOOKS 6.57GB

[复制链接]
发表于 2020-3-22 16:51:29 | 显示全部楼层 |阅读模式
帖子完整标题:秃鹰 Buzzard.2014.1080P.BluRay.x264-SPOOKS 6.57GB

e5d82a1bd060b.png

◎译  名 秃鹰
◎片  名 Buzzard
◎年  代 2014
◎产  地 美国
◎类  别 剧情
◎语  言 英语
◎上映日期 2014-08-11(洛迦诺电影节)
◎IMDb评分 6.4/10 from 1743 users
◎IMDb链接 https://www.imdb.com/title/tt2656588
◎豆瓣评分 0/10 from 0 users
◎豆瓣链接 https://movie.douban.com/subject/25912849/
◎片  长 97分钟
◎导  演 Joel Potrykus
◎编  剧 Joel Potrykus
◎主  演 Joshua Burge
      Joel Potrykus
      Teri Ann Nelson


◎标  签 2014 | 美国电影 | 独立电影 | 美國 | 喜剧片 | JoelPotrykus | 2010s | 魯蛇

◎简  介

  Bored office employee Marty, is out to cheat the system. One day he decides to make his escape by swiping dozens of undeliverable refund checks from his company. From here, his small-time scams manifest into paranoia and violence.

◎获奖情况

  第67届洛迦诺国际电影节(2014)
  当代电影人单元金豹奖(提名) 乔尔·坡特瑞克斯
Video
ID : 1
Format : AVC
Format/Info : Advanced Video Codec
Format profile : High@L4.1
Format settings : CABAC / 4 Ref Frames
Format settings, CABAC : Yes
Format settings, Reference frames : 4 frames
Codec ID : V_MPEG4/ISO/AVC
Duration : 1 h 37 min
Bit rate : 9 037 kb/s
Width : 1 920 pixels
Height : 1 080 pixels
Display aspect ratio : 16:9
Frame rate mode : Constant
Frame rate : 23.976 (24000/1001/189150) FPS
Color space : YUV
Chroma subsampling : 4:2:0
Bit depth : 8 bits
Scan type : Progressive
Bits/(Pixel*Frame) : 0.182
Stream size : 6.15 GiB (94%)
Writing library : x264 core 159 r2991 1771b55
Encoding settings : cabac=1 / ref=4 / deblock=1:-3:-3 / analyse=0x3:0x133 / me=umh / subme=9 / psy=1 / psy_rd=1.00:0.00 / mixed_ref=1 / me_range=24 / chroma_me=1 / trellis=1 / 8x8dct=1 / cqm=0 / deadzone=21,11 / fast_pskip=0 / chroma_qp_offset=-2 / threads=24 / lookahead_threads=4 / sliced_threads=0 / nr=0 / decimate=1 / interlaced=0 / bluray_compat=0 / constrained_intra=0 / bframes=8 / b_pyramid=2 / b_adapt=2 / b_bias=0 / direct=3 / weightb=1 / open_gop=0 / weightp=2 / keyint=250 / keyint_min=23 / scenecut=40 / intra_refresh=0 / rc_lookahead=60 / rc=2pass / mbtree=1 / bitrate=9037 / ratetol=1.0 / qcomp=0.60 / qpmin=0 / qpmax=69 / qpstep=4 / cplxblur=20.0 / qblur=0.5 / vbv_maxrate=62500 / vbv_bufsize=78125 / nal_hrd=none / filler=0 / ip_ratio=1.40 / aq=1:1.00
Default : Yes
Forced : No

Audio
ID : 2
Format : FLAC
Format/Info : Free Lossless Audio Codec
Codec ID : A_FLAC
Duration : 1 h 37 min
Bit rate mode : Variable
Bit rate : 593 kb/s
Channel(s) : 2 channels
Channel layout : L R
Sampling rate : 48.0 kHz
Frame rate : 10.417 FPS (4608 SPF)
Bit depth : 24 bits
Compression mode : Lossless
Stream size : 414 MiB (6%)
Writing library : Lavf58.29.100
Language : English
Default : Yes
Forced : No

Menu
00:00:00.000 : en:Chapter 01
00:06:56.124 : en:Chapter 02
00:14:57.522 : en:Chapter 03
00:23:12.766 : en:Chapter 04
00:33:11.489 : en:Chapter 05
00:41:12.428 : en:Chapter 06
00:48:35.329 : en:Chapter 07
00:58:04.690 : en:Chapter 08
01:05:17.372 : en:Chapter 09
01:11:39.545 : en:Chapter 10
01:21:29.426 : en:Chapter 11
01:30:14.117 : en:Chapter 12
570a1089bd068.png
游客,如果您要查看本帖隐藏内容请回复
发表于 2020-3-22 23:40:15 | 显示全部楼层
看本帖隐藏内容请回复
发表于 2020-3-23 19:11:05 | 显示全部楼层
楼主辛苦了,谢谢首发之家!!
发表于 2020-3-24 08:54:18 | 显示全部楼层
楼主辛苦了,谢谢首发之家!!
您需要登录后才可以回帖 登录 | 立即注册 用百度帐号登录

本版积分规则

手机版

轻松易点,迅速到家!

官方微信

扫描二维码,即刻与小易亲密互动,还有劲爆优惠等你来拿!

订阅QQ邮件

第一手促销资讯,尊享邮件特惠商品,优惠不错过!

广告招商QQ:2295479776|小黑屋|手机版|首发之家论坛 |网站地图

GMT+8, 2020-4-7 14:28 , Processed in 0.143663 second(s), 23 queries , XCache On.

Powered by Discuz! X3.4

@ 2001-2013 Comsenz Inc.

快速回复 返回顶部 返回列表