立即注册
 找回密码
 立即注册

扫一扫,访问微社区

用百度帐号登录

只需两步,快速登录

查看: 155|回复: 1

[惊悚] 巴克劳/夜鹰 Bacurau.2019.PORTUGUESE.1080p.AMZN.WEBRip.DDP2.0.x264-TEPES 8.66GB

[复制链接]
发表于 2020-3-22 16:49:07 | 显示全部楼层 |阅读模式

帖子完整标题:巴克劳/夜鹰 Bacurau.2019.PORTUGUESE.1080P.AMZN.WEBRip.DDP2.0.x264-TEPES 8.66GB

365183fb1a0a8.png

◎译  名 巴克劳 / 夜鹰 / 杀戮荒村(台)
◎片  名 Bacurau
◎年  代 2019
◎产  地 巴西 / 法国
◎类  别 剧情 / 惊悚
◎语  言 葡萄牙语 / 英语
◎上映日期 2019-05-15(戛纳电影节) / 2019-08-29(巴西)
◎IMDb评分 7.7/10 from 9833 users
◎IMDb链接 https://www.imdb.com/title/tt2762506
◎豆瓣评分 7.0/10 from 2183 users
◎豆瓣链接 https://movie.douban.com/subject/24389792/
◎片  长 131分钟
◎导  演 儒利亚诺·多赫内利斯 Juliano Dornelles / 小克莱伯·门多萨 Kleber Mendon?a Filho
◎编  剧 小克莱伯·门多萨 Kleber Mendon?a Filho / 儒利亚诺·多赫内利斯 Juliano Dornelles
◎主  演 芭芭拉·科伦 Bárbara Colen
      托马斯·阿基诺 Thomas Aquino
      西弗罗·佩雷拉 Silvero Pereira
      塔尔德尔·利马 Thardelly Lima
      鲁本斯·桑托斯 Rubens Santos
      威尔逊·拉贝洛 Wilson Rabelo
      卡洛斯·弗朗西斯科 Carlos Francisco
      露西安娜·索扎 Luciana Souza
      卡林·特莱斯 Karine Teles
      安东尼奥·萨瓦 Antonio Saboia
      索尼娅·布拉加 Sonia Braga
      乌多·基尔 Udo Kier
      布达·里拉 Buda Lira
      克莱比亚·索萨 Clebia Sousa
      丹尼·巴博萨 Danny Barbosa
      乔尼·马尔斯 Jonny Mars
      克里斯·杜贝克 Chris Doubek


◎标  签 巴西 | 2019 | 剧情 | 戛纳电影节 | 惊悚 | 政治 | 电影 | 暴力

◎简  介

  在不远的未来,Bacurau 村的女族长卡梅蒂塔逝世,享年94岁,全村都沉浸在悲痛之中。几天后村民们发现村庄从地图上消失了。

◎获奖情况

  第72届戛纳电影节(2019)
  主竞赛单元 金棕榈奖(提名) 儒利亚诺·多赫内利斯 / 小克莱伯·门多萨
  主竞赛单元 评审团奖 儒利亚诺·多赫内利斯 / 小克莱伯·门多萨
  同志金棕榈奖(提名) 儒利亚诺·多赫内利斯 / 小克莱伯·门多萨
Video
ID : 1
Format : AVC
Format/Info : Advanced Video Codec
Format profile : High@L4
Format settings : CABAC / 4 Ref Frames
Format settings, CABAC : Yes
Format settings, Reference frames : 4 frames
Codec ID : V_MPEG4/ISO/AVC
Duration : 2 h 11 min
Bit rate mode : Constant
Bit rate : 9 232 kb/s
Nominal bit rate : 10 000 kb/s
Width : 1 920 pixels
Height : 800 pixels
Display aspect ratio : 2.40:1
Frame rate mode : Constant
Frame rate : 24.000 FPS
Color space : YUV
Chroma subsampling : 4:2:0
Bit depth : 8 bits
Scan type : Progressive
Bits/(Pixel*Frame) : 0.250
Stream size : 8.45 GiB (98%)
Default : Yes
Forced : No
Color range : Limited
Color primaries : BT.709
Transfer characteristics : BT.709
Matrix coefficients : BT.709

Audio
ID : 2
Format : E-AC-3
Format/Info : Enhanced AC-3
Commercial name : Dolby Digital Plus
Codec ID : A_EAC3
Duration : 2 h 11 min
Bit rate mode : Constant
Bit rate : 224 kb/s
Channel(s) : 2 channels
Channel layout : L R
Sampling rate : 48.0 kHz
Frame rate : 31.250 FPS (1536 SPF)
Compression mode : Lossy
Stream size : 210 MiB (2%)
Language : Portuguese
Service kind : Complete Main
Default : Yes
Forced : No

Text #1
ID : 3
Format : UTF-8
Codec ID : S_TEXT/UTF8
Codec ID/Info : UTF-8 Plain Text
Duration : 1 h 59 min
Bit rate : 22 b/s
Count of elements : 784
Stream size : 20.0 KiB (0%)
Language : English
Default : No
Forced : No

Text #2
ID : 4
Format : UTF-8
Codec ID : S_TEXT/UTF8
Codec ID/Info : UTF-8 Plain Text
Duration : 2 h 0 min
Bit rate : 39 b/s
Count of elements : 1155
Stream size : 34.6 KiB (0%)
Language : German
Default : No
Forced : No

6ab81fdbc28ef.png dc8d9659ff785.png 8b4a511922150.png
游客,如果您要查看本帖隐藏内容请回复
发表于 2020-3-22 21:00:57 | 显示全部楼层
楼主辛苦了,谢谢首发之家!!
您需要登录后才可以回帖 登录 | 立即注册 用百度帐号登录

本版积分规则

手机版

轻松易点,迅速到家!

官方微信

扫描二维码,即刻与小易亲密互动,还有劲爆优惠等你来拿!

订阅QQ邮件

第一手促销资讯,尊享邮件特惠商品,优惠不错过!

广告招商QQ:2295479776|小黑屋|手机版|首发之家论坛 |网站地图

GMT+8, 2020-4-4 13:53 , Processed in 0.118316 second(s), 24 queries , XCache On.

Powered by Discuz! X3.4

@ 2001-2013 Comsenz Inc.

快速回复 返回顶部 返回列表