立即注册
 找回密码
 立即注册

扫一扫,访问微社区

用百度帐号登录

只需两步,快速登录

查看: 123|回复: 0

[其他] 于此生活 Here.for.Life.2019.1080p.AMZN.WEBRip.DDP5.1.x264-Cinefeel 5.35GB

[复制链接]
发表于 7 天前 | 显示全部楼层 |阅读模式

帖子完整标题:于此生活 Here.for.Life.2019.1080P.AMZN.WEBRip.DDP5.1.x264-Cinefeel 5.35GB

f603e71aa1659.png

◎译  名 于此生活
◎片  名 Here for Life
◎年  代 2019
◎产  地 英国
◎语  言 英语
◎上映日期 2019-08-17(洛迦诺电影节)
◎IMDb评分 6.2/10 from 21 users
◎IMDb链接 https://www.imdb.com/title/tt10382610
◎豆瓣评分 0/10 from 0 users
◎豆瓣链接 https://movie.douban.com/subject/34614655/
◎片  长 87分钟
◎导  演 Andrea Luka Zimmerman / Adrian Jackson
◎主  演 Jo Galbraith
      Jake Goode
      Richard Honeyghan
      Kamby Kamara
      Errol McGlashan
      Patrick Onione
      Ben Smithies
      Mwiinga Twyman
      Jono Whitty


◎标  签 (电脑) | (2019) | 【6.0】 | P-LocarnoB入围当代电影人单元 | N英国 | G纪录片 | 2010s

◎简  介

  Here For Life is an uncommon story on common qiwan.cc ground. Wayward, hybrid, tender.

◎获奖情况

  第72届洛迦诺国际电影节(2019)
  当代电影人单元金豹奖(提名) Andrea Luka Zimmerman / Adrian Jackson
  当代电影人单元特别提名奖 Andrea Luka Zimmerman / Adrian Jackson

  第22届英国独立电影奖(2019)
  最佳探索奖(提名)
Video
ID : 1
Format : AVC
Format/Info : Advanced Video Codec
Format profile : High@L4
Format settings : CABAC / 4 Ref Frames
Format settings, CABAC : Yes
Format settings, Reference frames : 4 frames
Codec ID : V_MPEG4/ISO/AVC
Duration : 1 h 27 min
Bit rate mode : Constant
Bit rate : 8 121 kb/s
Nominal bit rate : 10 000 kb/s
Width : 1 920 pixels
Height : 1 080 pixels
Display aspect ratio : 16:9
Frame rate mode : Constant
Frame rate : 23.976 (24000/1001/189150) FPS
Color space : YUV
Chroma subsampling : 4:2:0
Bit depth : 8 bits
Scan type : Progressive
Bits/(Pixel*Frame) : 0.163
Stream size : 4.96 GiB (93%)
Default : Yes
Forced : No
Color range : Limited
Color primaries : BT.709
Transfer characteristics : BT.709
Matrix coefficients : BT.709

Audio
ID : 2
Format : E-AC-3
Format/Info : Enhanced AC-3
Commercial name : Dolby Digital Plus
Codec ID : A_EAC3
Duration : 1 h 27 min
Bit rate mode : Constant
Bit rate : 640 kb/s
Channel(s) : 6 channels
Channel layout : L R C LFE Ls Rs
Sampling rate : 48.0 kHz
Frame rate : 31.250 FPS (1536 SPF)
Compression mode : Lossy
Stream size : 400 MiB (7%)
Title : English
Language : English
Service kind : Complete Main
Default : Yes
Forced : No c7e7dc59b1aec.png d8c815def4e0c.png 48f695868da35.png
游客,如果您要查看本帖隐藏内容请回复
您需要登录后才可以回帖 登录 | 立即注册 用百度帐号登录

本版积分规则

手机版

轻松易点,迅速到家!

官方微信

扫描二维码,即刻与小易亲密互动,还有劲爆优惠等你来拿!

订阅QQ邮件

第一手促销资讯,尊享邮件特惠商品,优惠不错过!

广告招商QQ:2295479776|小黑屋|手机版|首发之家论坛 |网站地图

GMT+8, 2020-3-29 19:13 , Processed in 0.109728 second(s), 23 queries , XCache On.

Powered by Discuz! X3.4

@ 2001-2013 Comsenz Inc.

快速回复 返回顶部 返回列表