立即注册
 找回密码
 立即注册

扫一扫,访问微社区

用百度帐号登录

只需两步,快速登录

查看: 126|回复: 0

[爱情] 帮老爸拍张照 Capturing.Dad.2012.JAPANESE.1080p.WEBRip.x264-VXT 1.41GB

[复制链接]
发表于 2020-3-22 16:47:19 | 显示全部楼层 |阅读模式

帖子完整标题:帮老爸拍张照 Capturing.Dad.2012.JAPANESE.1080P.WEBRip.x264-VXT 1.41GB

ae1c60f42eadf.png

◎译  名 帮老爸拍张照 / Capturing Dad / 带上爸爸 / 爸爸的照片(港)
◎片  名 チチを撮りに
◎年  代 2012
◎产  地 日本
◎类  别 剧情
◎语  言 日语
◎上映日期 2012-06-15(SKIP CITY国际数字电影节) / 2013-02-16(日本)
◎IMDb评分 7.0/10 from 147 users
◎IMDb链接 https://www.imdb.com/title/tt2476426
◎豆瓣评分 7.1/10 from 43 users
◎豆瓣链接 https://movie.douban.com/subject/11612462/
◎片  长 74分钟
◎导  演 中野量太
◎编  剧 中野量太
◎主  演 渡边真起子 Makiko Watanabe
      柳英里紗
      松原菜野花
      泷藤贤一 Kenichi Takito
      小林海人 Kaito Kobayashi
      二阶堂智 Satoshi Nikaido


◎标  签 日本电影 | 日本 | 中野量太 | 渡辺真起子 | 映画 | 2013 | 2012 | 日影

◎简  介

  没有固定职业的叶月和正就读高中的呼春是一对亲生姐妹。这一天,母亲佐和向姐妹俩提出一个请求,希望她们前去探望即将去世的父亲西森正高,并拍下照片回来。14年前,正高为了情人离家出走,当时年纪尚小的叶月和呼春对父亲的记忆稀薄。虽然心中多少有些勉强,但她们也隐隐希望见到已记不清面容的父亲。几经辗转,她们总算到达父亲居住的乡下,却得知父亲已经去世。叔父和同父异母的弟弟让叶月姐妹感受到亲情的温暖,只不过她们没有想到,自己很快便要卷入充满斗诤的修罗场中……

◎获奖情况

  第7届亚洲电影大奖(2013)
  最佳女配角 渡边真起子
Video
ID : 1
Format : AVC
Format/Info : Advanced Video Codec
Format profile : High@L4.1
Format settings : CABAC / 4 Ref Frames
Format settings, CABAC : Yes
Format settings, Reference frames : 4 frames
Codec ID : avc1
Codec ID/Info : Advanced Video Coding
Duration : 1 h 13 min
Bit rate : 2 500 kb/s
Width : 1 920 pixels
Height : 1 080 pixels
Display aspect ratio : 16:9
Frame rate mode : Constant
Frame rate : 29.970 (29970/1000/189150) FPS
Color space : YUV
Chroma subsampling : 4:2:0
Bit depth : 8 bits
Scan type : Progressive
Bits/(Pixel*Frame) : 0.040
Stream size : 1.29 GiB (91%)
Writing library : x264 core 152 r2851M ba24899
Encoding settings : cabac=1 / ref=4 / deblock=1:-1:-1 / analyse=0x3:0x113 / me=umh / subme=9 / psy=1 / psy_rd=1.00:0.15 / mixed_ref=1 / me_range=24 / chroma_me=1 / trellis=2 / 8x8dct=1 / cqm=0 / deadzone=21,11 / fast_pskip=1 / chroma_qp_offset=-3 / threads=16 / lookahead_threads=4 / sliced_threads=0 / nr=0 / decimate=1 / interlaced=0 / bluray_compat=0 / constrained_intra=0 / bframes=3 / b_pyramid=2 / b_adapt=2 / b_bias=0 / direct=3 / weightb=1 / open_gop=0 / weightp=2 / keyint=250 / keyint_min=25 / scenecut=40 / intra_refresh=0 / rc_lookahead=50 / rc=2pass / mbtree=1 / bitrate=2500 / ratetol=1.0 / qcomp=0.60 / qpmin=0 / qpmax=69 / qpstep=4 / cplxblur=20.0 / qblur=0.5 / vbv_maxrate=31250 / vbv_bufsize=31250 / nal_hrd=none / filler=0 / ip_ratio=1.40 / aq=3:1.00
Encoded date : UTC 2020-03-21 15:06:17
Tagged date : UTC 2020-03-21 15:06:17
Codec configuration box : avcC

Audio
ID : 2
Format : AAC LC
Format/Info : Advanced Audio Codec Low Complexity
Codec ID : mp4a-40-2
Duration : 1 h 13 min
Bit rate mode : Constant
Bit rate : 224 kb/s
Channel(s) : 6 channels
Channel layout : C L R Ls Rs LFE
Sampling rate : 48.0 kHz
Frame rate : 46.875 FPS (1024 SPF)
Compression mode : Lossy
Stream size : 118 MiB (8%)
Language : Japanese
Default : Yes
Alternate group : 1
Encoded date : UTC 2020-03-21 15:06:17
Tagged date : UTC 2020-03-21 15:06:17 7c1adb20a7454.png 5b86ceb752f60.png
游客,如果您要查看本帖隐藏内容请回复
您需要登录后才可以回帖 登录 | 立即注册 用百度帐号登录

本版积分规则

手机版

轻松易点,迅速到家!

官方微信

扫描二维码,即刻与小易亲密互动,还有劲爆优惠等你来拿!

订阅QQ邮件

第一手促销资讯,尊享邮件特惠商品,优惠不错过!

广告招商QQ:2295479776|小黑屋|手机版|首发之家论坛 |网站地图

GMT+8, 2020-3-30 06:02 , Processed in 0.114610 second(s), 23 queries , XCache On.

Powered by Discuz! X3.4

@ 2001-2013 Comsenz Inc.

快速回复 返回顶部 返回列表