立即注册
 找回密码
 立即注册

扫一扫,访问微社区

用百度帐号登录

只需两步,快速登录

查看: 63|回复: 0

[剧情] 危机最前线/小镇疯情 Mad.City.1997.720p.BluRay.X264-AMIABLE 6.56GB

[复制链接]
发表于 6 天前 | 显示全部楼层 |阅读模式

帖子完整标题:危机最前线/小镇疯情 Mad.City.1997.720P.BluRay.X264-AMIABLE 6.56GB
4f142ca13a9fc.png


◎译  名 危机最前线 / 小镇疯情
◎片  名 Mad City
◎年  代 1997
◎产  地 美国
◎类  别 剧情 / 惊悚
◎语  言 英语
◎上映日期 1997-10-10(瑞典)
◎IMDb评分 6.3/10 from 18668 users
◎IMDb链接 https://www.imdb.com/title/tt0119592
◎豆瓣评分 8.1/10 from 2017 users
◎豆瓣链接 https://movie.douban.com/subject/1293614/
◎片  长 115 分钟
◎导  演 科斯塔·加华斯 Costa-Gavras
◎编  剧 Tom Matthews
◎主  演 约翰·特拉沃塔 John Travolta
      达斯汀·霍夫曼 Dustin Hoffman
      阿伦·阿尔达 Alan Alda
      米娅·科施娜 Mia Kirshner
      泰德·拉文 Ted Levine


◎标  签 美国 | 人性 | 剧情 | 媒体 | 达斯汀·霍夫曼 | 美国电影 | JohnTravolta | DustinHoffman

◎简  介

  麦克斯(达斯汀·霍夫曼 Dustin Hoffman 饰)曾是新闻界炙手可热的新星,一次工作中的失误让他受到了贬职的惩罚,自此无法翻身的他被派往了偏远的小镇中,成为了一个每天播报着无关紧要消息的小镇记者。
  一日,麦克斯正在博物馆采访,一个名叫山姆(约翰·特拉沃塔 John Travolta 饰)的男人持枪劫持了博物馆的馆长。原来,山姆曾经是博物馆的工作人员,在裁员中丢了工作,无法接受现实的他选择了用极端的方式表达自己的愤怒。很快,敏感的麦克斯发现,自己或许可以利用这场事故挽回自己在新闻界的名声,于是,野心勃勃的他立刻展开了他的工作。随着麦克斯的播报,越来越多的媒体和记者聚集到了博物馆周围,很快,事态的发展就脱离了控制。
Video
ID : 1
Format : AVC
Format/Info : Advanced Video Codec
Format profile : High@L4.1
Format settings : CABAC / 5 Ref Frames
Format settings, CABAC : Yes
Format settings, Reference frames : 5 frames
Codec ID : V_MPEG4/ISO/AVC
Duration : 1 h 50 min
Bit rate : 7 022 kb/s
Width : 1 280 pixels
Height : 544 pixels
Display aspect ratio : 2.35:1
Frame rate mode : Constant
Frame rate : 25.000 FPS
Color space : YUV
Chroma subsampling : 4:2:0
Bit depth : 8 bits
Scan type : Progressive
Bits/(Pixel*Frame) : 0.403
Stream size : 5.27 GiB (80%)
Writing library : x264 core 159 r2991 1771b55
Encoding settings : cabac=1 / ref=5 / deblock=1:-3:-3 / analyse=0x3:0x113 / me=umh / subme=8 / psy=1 / psy_rd=1.10:0.00 / mixed_ref=1 / me_range=24 / chroma_me=1 / trellis=2 / 8x8dct=1 / cqm=0 / deadzone=21,11 / fast_pskip=1 / chroma_qp_offset=-2 / threads=17 / lookahead_threads=2 / sliced_threads=0 / nr=0 / decimate=1 / interlaced=0 / bluray_compat=0 / constrained_intra=0 / bframes=3 / b_pyramid=2 / b_adapt=2 / b_bias=0 / direct=3 / weightb=1 / open_gop=0 / weightp=2 / keyint=250 / keyint_min=25 / scenecut=40 / intra_refresh=0 / rc_lookahead=50 / rc=2pass / mbtree=1 / bitrate=7022 / ratetol=1.0 / qcomp=0.60 / qpmin=0 / qpmax=69 / qpstep=4 / cplxblur=20.0 / qblur=0.5 / ip_ratio=1.40 / aq=3:0.70
Default : Yes
Forced : No
Statistics Tags Issue : no_variable_data 1970-01-01 00:00:00 / no_variable_data 2010-02-22 21:41:29
FromStats_BitRate : 7018353
FromStats_Duration : 01:50:01.920000000
FromStats_FrameCount : 165048
FromStats_StreamSize : 5791825867

Audio
ID : 2
Format : DTS
Format/Info : Digital Theater Systems
Codec ID : A_DTS
Duration : 1 h 50 min
Bit rate mode : Constant
Bit rate : 1 509 kb/s
Channel(s) : 6 channels
Channel layout : C L R Ls Rs LFE
Sampling rate : 48.0 kHz
Frame rate : 93.750 FPS (512 SPF)
Bit depth : 24 bits
Compression mode : Lossy
Stream size : 1.16 GiB (18%)
Language : English
Default : Yes
Forced : No
Statistics Tags Issue : no_variable_data 1970-01-01 00:00:00 / no_variable_data 2010-02-22 21:41:29
FromStats_BitRate : 1508999
FromStats_Duration : 01:50:00.939000000
FromStats_FrameCount : 618838
FromStats_StreamSize : 1245102056

Text #1
ID : 3
Format : UTF-8
Codec ID : S_TEXT/UTF8
Codec ID/Info : UTF-8 Plain Text
Language : English
Default : No
Forced : No
Statistics Tags Issue : no_variable_data 1970-01-01 00:00:00 / no_variable_data 2010-02-22 21:41:29
FromStats_BitRate : 84
FromStats_Duration : 01:47:39.712000000
FromStats_FrameCount : 1884
FromStats_StreamSize : 68583

Text #2
ID : 4
Format : UTF-8
Codec ID : S_TEXT/UTF8
Codec ID/Info : UTF-8 Plain Text
Title : SDH
Language : English
Default : No
Forced : No
Statistics Tags Issue : no_variable_data 1970-01-01 00:00:00 / no_variable_data 2010-02-22 21:41:29
FromStats_BitRate : 90
FromStats_Duration : 01:47:39.712000000
FromStats_FrameCount : 1924
FromStats_StreamSize : 73054

Text #3
ID : 5
Format : UTF-8
Codec ID : S_TEXT/UTF8
Codec ID/Info : UTF-8 Plain Text
Language : English
Default : No
Forced : No
Statistics Tags Issue : no_variable_data 1970-01-01 00:00:00 / no_variable_data 2010-02-22 21:41:29
FromStats_BitRate : 85
FromStats_Duration : 01:47:39.712000000
FromStats_FrameCount : 1913
FromStats_StreamSize : 68886

Menu
00:00:00.000 : en:Chapter 01
00:10:36.000 : en:Chapter 02
00:15:03.920 : en:Chapter 03
00:20:28.400 : en:Chapter 04
00:30:41.640 : en:Chapter 05
00:38:24.720 : en:Chapter 06
00:48:00.920 : en:Chapter 07
00:55:39.480 : en:Chapter 08
01:09:04.200 : en:Chapter 09
01:22:17.160 : en:Chapter 10
01:28:19.480 : en:Chapter 11
01:40:57.760 : en:Chapter 12
f49e474514ffe.png
游客,如果您要查看本帖隐藏内容请回复
您需要登录后才可以回帖 登录 | 立即注册 用百度帐号登录

本版积分规则

手机版

轻松易点,迅速到家!

官方微信

扫描二维码,即刻与小易亲密互动,还有劲爆优惠等你来拿!

订阅QQ邮件

第一手促销资讯,尊享邮件特惠商品,优惠不错过!

广告招商QQ:2295479776|小黑屋|手机版|首发之家论坛 |网站地图

GMT+8, 2020-3-28 17:16 , Processed in 0.115076 second(s), 24 queries , XCache On.

Powered by Discuz! X3.4

@ 2001-2013 Comsenz Inc.

快速回复 返回顶部 返回列表