立即注册
 找回密码
 立即注册

扫一扫,访问微社区

用百度帐号登录

只需两步,快速登录

查看: 107|回复: 9

[动作] 猛禽小队和哈莉·奎茵 2020.1080p.WEB-DL.DD5.1.H264-FGT 3.76GB

[复制链接]
发表于 2020-3-22 16:44:31 | 显示全部楼层 |阅读模式
帖子完整标题:猛禽小队和哈莉·奎茵 Birds.of.Prey.And.the.Fantabulous.Emancipation.of.One.Harley.Quinn.2020.1080P.WEB-DL.DD5.1.H264-FGT 3.76GB

1c33b1938d0eb.png

◎译  名 猛禽小队和哈莉·奎茵 / Birds of Prey / Birds of Prey (And the Fantabulous Emancipation of One Harley Quinn) / Harley Quinn: Birds of Prey / 哈莉·奎因:猛禽小队 / 猛禽小队 / 猛禽小队(以及一个哈莉·奎茵的奇妙解放) / 猛禽小队与哈莉·奎茵的奇妙解放 / 猛禽小队:小丑女大解放(台) / 猛禽暴队:解疯小丑女(港)
◎片  名 Birds of Prey: And the Fantabulous Emancipation of One Harley Quinn
◎年  代 2020
◎产  地 美国
◎类  别 动作 / 犯罪 / 冒险
◎语  言 英语
◎上映日期 2020-02-07(美国)
◎IMDb评分 6.4/10 from 63464 users
◎IMDb链接 https://www.imdb.com/title/tt7713068
◎豆瓣评分 5.8/10 from 31836 users
◎豆瓣链接 https://movie.douban.com/subject/30160393/
◎片  长 109分钟
◎导  演 阎羽茜 Cathy Yan
◎编  剧 克里斯蒂娜·霍德森 Christina Hodson / 查克·狄克逊 Chuck Dixon / 乔丹·B·戈芬克尔 Jordan B. Gorfinkel / 格雷格·兰德 Greg Land
◎主  演 玛格特·罗比 Margot Robbie
      玛丽·伊丽莎白·温斯特德 Mary Elizabeth Winstead
      罗茜·佩雷兹 Rosie Perez
      朱尼·斯莫利特 Jurnee Smollett
      伊万·麦克格雷格 Ewan McGregor
      埃拉·杰伊·巴斯科 Ella Jay Basco
      克里斯·梅西纳 Chris Messina
      黄阿丽 Ali Wong
      戴维·尤里 David Ury
      萨拉·蒙特斯 Sara Montez
      伊莎贝尔·帕克扎德 Isabel Pakzad
      丹尼尔·伯哈特 Daniel Bernhardt
      帕洛马·拉比诺夫 Paloma Rabinov
      德里克·威尔逊 Derek Wilson
      乔·布卡罗三世 Joe Bucaro III
      弗朗克西斯·周 Fran?ois Chau
      布鲁诺·奥利弗 Bruno Oliver
      马修·维利希 Matthew Willig
      杰里米·丹茨林格 Jeremy Denzlinger
      迈克尔·马西尼 Michael Masini
      杰西·布什 Jesse Bush
      史蒂文·威廉姆斯 Steven Williams
      夏洛林·阿莫亚 Charlene Amoia
      罗伯特·卡特里尼 Robert Catrini
      埃迪·阿尔法诺 Eddie Alfano
      普拉莫德库马尔 Pramod Kumar
      K.K. 巴雷特 K.K. Barrett
      西蒙·瑞 Simon Rhee
      凯莱布·斯比尔亚兹 Caleb Spillyards
      萨拉·贝克 Sala Baker
      埃夫卡·科瓦拉西尤斯 Efka Kvaraciejus
      山姆·哈格雷夫 Sam Hargrave
      丹尼斯·基弗 Dennis Keiffer
      博亚娜·诺瓦科维奇 Bojana Novakovi?
      埃里克·迈克尔·科尔 Eric Michael Cole
      提姆·里格比 Tim Rigby
      大卫·安东尼·布廖内 David Anthony Buglione
      杰拉德·唐尼 Gerald Downey
      埃迪·J.费尔南德斯 Eddie J. Fernandez
      尼科·格莱瑟姆 Nico Greetham
      朱迪·凯恩 Judy Kain
      杰夫·里帕瑞 Jeff Lipary
      詹妮尔·麦基 Jenelle McKee
      伊戈·米基塔斯 Ego Mikitas
      安东尼·莫利纳利 Anthony Molinari
      迪索·拉莫斯 Diezel Ramos
      凯伦·特利哈 Karen Teliha


◎标  签 DC | 犯罪 | 美国 | 女性 | 超级英雄 | 动作 | 漫画改编 | 2020

◎简  介

  你听过一个有关警察、歌手、神经病和黑手党公主的故事吗?《猛禽小队和哈莉·奎茵》是一个只有哈莉·奎茵本人才能讲出来的超乎寻常的奇妙传奇。哥谭市最为凶残自大的恶棍罗曼·赛恩尼斯和他狂热的手下萨斯为了寻找一个年轻女孩卡斯,将这座城市翻了个底朝天。哈莉、女猎手、黑金丝雀和蕾妮·蒙托亚不期而遇,看似违和的四人组不得不团结一致、携手作战,才有可能打败罗曼。

◎获奖情况

  第6届豆瓣电影年度榜单(2019)
  最值得期待的外语电影(提名)
Video
ID : 1
Format : AVC
Format/Info : Advanced Video Codec
Format profile : High@L4
Format settings : CABAC / 5 Ref Frames
Format settings, CABAC : Yes
Format settings, Reference frames : 5 frames
Codec ID : V_MPEG4/ISO/AVC
Duration : 1 h 48 min
Bit rate : 4 553 kb/s
Width : 1 920 pixels
Height : 802 pixels
Display aspect ratio : 2.40:1
Frame rate mode : Constant
Frame rate : 23.976 (24000/1001/189150) FPS
Color space : YUV
Chroma subsampling : 4:2:0
Bit depth : 8 bits
Scan type : Progressive
Bits/(Pixel*Frame) : 0.123
Stream size : 3.46 GiB (92%)
Title : Birds.of.Prey.And.the.Fantabulous.Emancipation.of.One.Harley.Quinn.2020.1080p.WEB-DL.DD5.1.H264-FGT
Language : English
Default : Yes
Forced : No
Color range : Limited
Color primaries : BT.709
Transfer characteristics : BT.709
Matrix coefficients : BT.709

Audio
ID : 2
Format : AC-3
Format/Info : Audio Coding 3
Commercial name : Dolby Digital
Codec ID : A_AC3
Duration : 1 h 48 min
Bit rate mode : Constant
Bit rate : 384 kb/s
Channel(s) : 6 channels
Channel layout : L R C LFE Ls Rs
Sampling rate : 48.0 kHz
Frame rate : 31.250 FPS (1536 SPF)
Bit depth : 16 bits
Compression mode : Lossy
Stream size : 299 MiB (8%)
Title : Birds.of.Prey.And.the.Fantabulous.Emancipation.of.One.Harley.Quinn.2020.1080p.WEB-DL.DD5.1.H264-FGT
Language : English
Service kind : Complete Main
Default : Yes
Forced : No

Text
ID : 3
Format : UTF-8
Codec ID : S_TEXT/UTF8
Codec ID/Info : UTF-8 Plain Text
Duration : 1 h 48 min
Bit rate : 56 b/s
Count of elements : 1612
Stream size : 45.2 KiB (0%)
Language : English
Default : Yes
Forced : No

Menu
00:00:00.000 : en:1
00:08:07.779 : en:2
00:17:53.072 : en:3
00:27:11.171 : en:4
00:35:40.138 : en:5
00:44:47.685 : en:6
00:53:42.719 : en:7
01:01:14.878 : en:8
01:10:55.290 : en:9
01:19:05.822 : en:10
01:24:27.475 : en:11
01:34:27.324 : en:12
01:41:26.326 : en:13

d591c32f3a988.png 5cace166c7e6f.png b7bf7d5ea9eb6.png
游客,如果您要查看本帖隐藏内容请回复
发表于 2020-3-22 17:34:38 | 显示全部楼层
楼主辛苦了,谢谢首发之家!!
发表于 2020-3-22 17:41:47 | 显示全部楼层
谢谢你们的爱
发表于 2020-3-22 22:11:41 | 显示全部楼层
楼主辛苦了,谢谢首发之家!!
发表于 2020-3-23 00:40:33 | 显示全部楼层
猛禽小队和哈莉·奎茵 2020.1080p.WEB-DL.DD5.1.H264-FGT 3.
发表于 2020-3-28 19:28:10 | 显示全部楼层
楼主辛苦了,谢谢首发之家!!
发表于 7 天前 | 显示全部楼层
楼主辛苦了,谢谢首发之家!!
发表于 3 天前 | 显示全部楼层
感谢楼主 感谢楼主  感谢楼主 感谢楼主  感谢楼主 感谢楼主  
发表于 3 天前 | 显示全部楼层
期待已久 终于有资源了
发表于 3 天前 | 显示全部楼层
楼主辛苦了,谢谢首发之家!!
您需要登录后才可以回帖 登录 | 立即注册 用百度帐号登录

本版积分规则

手机版

轻松易点,迅速到家!

官方微信

扫描二维码,即刻与小易亲密互动,还有劲爆优惠等你来拿!

订阅QQ邮件

第一手促销资讯,尊享邮件特惠商品,优惠不错过!

广告招商QQ:2295479776|小黑屋|手机版|首发之家论坛 |网站地图

GMT+8, 2020-4-7 14:11 , Processed in 0.128431 second(s), 24 queries , XCache On.

Powered by Discuz! X3.4

@ 2001-2013 Comsenz Inc.

快速回复 返回顶部 返回列表