立即注册
 找回密码
 立即注册

扫一扫,访问微社区

用百度帐号登录

只需两步,快速登录

查看: 180|回复: 3

[喜剧] 死尸少女惊魂舞 Girls.Dance.With.The.Dead.2015.JAPANESE.1080p.BluRay.x264.DTS-...

[复制链接]
发表于 2020-3-20 11:46:20 | 显示全部楼层 |阅读模式

帖子完整标题:死尸少女惊魂舞 Girls.Dance.With.The.Dead.2015.JAPANESE.1080P.BluRay.x264.DTS-iKiW 7.01GB
483c7c6631014.png


◎译  名 死尸少女惊魂舞 / Girls, Dance with the Dead
◎片  名 女の子よ死体と踊れ
◎年  代 2015
◎产  地 日本
◎类  别 喜剧
◎语  言 日语
◎上映日期 2015-10-31(日本)
◎IMDb评分 1.2/10 from 351 users
◎IMDb链接 https://www.imdb.com/title/tt4932436
◎豆瓣评分 3.4/10 from 250 users
◎豆瓣链接 https://movie.douban.com/subject/26589492/
◎片  长 70分钟
◎导  演 朝仓加叶子 Kayoko Asakura
◎编  剧 朝仓加叶子 Kayoko Asakura
◎主  演 Ano
      Chibo
      Chiffon
      Keiko Furuuchi
      Fukiko Hara
      Hiroaki Kawatsure
      Kechon
      Takashi Kokubu
      Masaru Matsuda
      Mone
      Teruhiko Nobukuni
      Takuya Omoto
      Yonapi


◎标  签 日本 | 日本电影 | 喜剧 | 2015 | 青春 | 烂片 | 剧情 | 电影

◎简  介

  在清洁公司YMM打工的五个平凡少女,平日里经常被如鬼一般可怕的女社长怒骂,她们战战兢兢,不敢妄动。某天,女孩们在森林中清扫时,居然发现一具美丽少女的“尸体”。她们利用挪威死亡金属乐队的神秘仪式成功复活了这个女孩,不过死尸女孩的背后隐藏着一个危险的秘密…
Video
ID : 1
Format : AVC
Format/Info : Advanced Video Codec
Format profile : High@L4.1
Format settings : CABAC / 4 Ref Frames
Format settings, CABAC : Yes
Format settings, Reference frames : 4 frames
Codec ID : V_MPEG4/ISO/AVC
Duration : 1 h 7 min
Bit rate : 14.6 Mb/s
Width : 1 920 pixels
Height : 1 038 pixels
Display aspect ratio : 1.85:1
Frame rate mode : Constant
Frame rate : 23.976 (24000/1001/189150) FPS
Color space : YUV
Chroma subsampling : 4:2:0
Bit depth : 8 bits
Scan type : Progressive
Bits/(Pixel*Frame) : 0.305
Stream size : 6.90 GiB (99%)
Writing library : x264 core 129 r2245+704+36 8e61944 tMod+MixAQ [8-bit@4:2:0 X86_64]
Encoding settings : cabac=1 / ref=4 / deblock=1:-3:-3 / analyse=0x3:0x133 / me=umh / subme=11 / psy=1 / fade_compensate=0.00 / psy_rd=1.05:0.10 / mixed_ref=1 / me_range=64 / chroma_me=1 / trellis=2 / 8x8dct=1 / cqm=0 / deadzone=21,11 / fast_pskip=0 / chroma_qp_offset=-3 / threads=18 / lookahead_threads=3 / sliced_threads=0 / nr=0 / decimate=0 / interlaced=0 / bluray_compat=0 / constrained_intra=0 / fgo=0 / bframes=10 / b_pyramid=2 / b_adapt=2 / b_bias=0 / direct=3 / weightb=1 / open_gop=0 / weightp=2 / keyint=250 / keyint_min=23 / scenecut=40 / intra_refresh=0 / rc_lookahead=80 / rc=2pass / mbtree=1 / bitrate=14592 / ratetol=1.0 / qcomp=0.70 / qpmin=0 / qpmax=69 / qpstep=4 / cplxblur=20.0 / qblur=0.5 / ip_ratio=1.40 / aq=1 / aq-strength=0.85 / aq-sensitivity=10.00 / aq-ifactor=1.00 / aq-pfactor=1.00 / aq-bfactor=1.00 / aq2=0
Language : Japanese
Default : Yes
Forced : No

Audio
ID : 2
Format : AC-3
Format/Info : Audio Coding 3
Commercial name : Dolby Digital
Codec ID : A_AC3
Duration : 1 h 7 min
Bit rate mode : Constant
Bit rate : 192 kb/s
Channel(s) : 2 channels
Channel layout : L R
Sampling rate : 48.0 kHz
Frame rate : 31.250 FPS (1536 SPF)
Bit depth : 16 bits
Compression mode : Lossy
Stream size : 93.0 MiB (1%)
Language : Japanese
Service kind : Complete Main
Default : Yes
Forced : No

Text #1
ID : 3
Format : UTF-8
Codec ID : S_TEXT/UTF8
Codec ID/Info : UTF-8 Plain Text
Duration : 1 h 0 min
Bit rate : 26 b/s
Count of elements : 476
Stream size : 11.8 KiB (0%)
Language : English
Default : Yes
Forced : No

Text #2
ID : 4
Format : ASS
Codec ID : S_TEXT/ASS
Codec ID/Info : Advanced Sub Station Alpha
Duration : 1 h 7 min
Bit rate : 63 b/s
Count of elements : 588
Compression mode : Lossless
Stream size : 31.5 KiB (0%)
Language : Chinese
Default : No
Forced : No

Menu
00:00:00.000 : en:00:00:00.000
00:11:05.998 : en:00:11:05.998
00:19:13.443 : en:00:19:13.443
00:27:26.144 : en:00:27:26.144
00:31:51.159 : en:00:31:51.159
00:43:17.469 : en:00:43:17.469
00:52:13.630 : en:00:52:13.630
01:00:51.189 : en:01:00:51.189
01:07:40.056 : en:01:07:40.056
2028a6bd8382a.png fff9e8019aa41.png 449442ae7f76c.png
游客,如果您要查看本帖隐藏内容请回复
发表于 7 天前 | 显示全部楼层
楼主辛苦了,谢谢首发之家!!
发表于 7 天前 | 显示全部楼层
楼主辛苦了,谢谢首发之家
您需要登录后才可以回帖 登录 | 立即注册 用百度帐号登录

本版积分规则

手机版

轻松易点,迅速到家!

官方微信

扫描二维码,即刻与小易亲密互动,还有劲爆优惠等你来拿!

订阅QQ邮件

第一手促销资讯,尊享邮件特惠商品,优惠不错过!

广告招商QQ:2295479776|小黑屋|手机版|首发之家论坛 |网站地图

GMT+8, 2020-3-28 17:23 , Processed in 0.113484 second(s), 24 queries , XCache On.

Powered by Discuz! X3.4

@ 2001-2013 Comsenz Inc.

快速回复 返回顶部 返回列表