立即注册
 找回密码
 立即注册

扫一扫,访问微社区

用百度帐号登录

只需两步,快速登录

查看: 228|回复: 1

[喜剧] 圣诞欢歌/圣诞颂歌 The.Muppet.Christmas.Carol.1992.iNTERNAL.HDR.2160p.WEB.H265...

[复制链接]
发表于 2020-2-25 11:34:56 | 显示全部楼层 |阅读模式
3150eb0064178.png
◎译  名 圣诞欢歌 / 圣诞颂歌 / 布偶圣诞颂 / 布偶小气神圣诞
◎片  名 The Muppet Christmas Carol
◎年  代 1992
◎产  地 美国
◎类  别 喜剧 / 音乐 / 歌舞 / 家庭 / 奇幻
◎语  言 英语
◎上映日期 1992-12-10
◎IMDb评分 7.7/10 from 45610 users
◎IMDb链接 https://www.imdb.com/title/tt0104940
◎豆瓣评分 8.1/10 from 516 users
◎豆瓣链接 https://movie.douban.com/subject/1296611/
◎片  长 85 分钟
◎导  演 布赖恩 汉森 (Brian Henson)
◎编  剧 查尔斯 狄更斯 (Charles Dickens) / Jerry Juhl
◎主  演 Michael Caine
      Dave Goelz
      Donald Austen
      David Alan
      Barclay
      Robbie Barnett


◎标  签 圣诞 | 美国 | 喜剧 | 美国电影 | 圣诞节 | 布偶 | 儿童 | 电影

◎简  介

  《圣诞颂歌》是英国作家查尔斯·狄更斯的小说名篇,主人公史高哲(Scrooge,又译“斯克鲁奇”)是个远近闻名的吝啬鬼,他刻薄、冷漠而又视财如命的形象让人记忆深刻。史高哲经营者一家账房,可是,有一天,他那死去的生意伙伴雅各布的鬼魂出现,改变了一切。
  In this adaptation of the Christmas story narrated by Charles Dickens himself (played by Gonzo the Great) with the occasional commentary of Rizzo the Rat, it is Christmas Eve in 19th century London. The merriment is not shared by Ebenezer Scrooge (Michael Caine), a surly money-lender who is more interested in profit than celebration. So cold to the season of giving is he that his book-keeping staff, including loyal employee Bob Cratchit (Kermit the Frog), has to plead with him just to have the day off work during Christmas by pointing out that Scrooge would have no customers on the holiday and that it would waste coal to sit alone in the office. Scrooge's nephew, Fred, arrives to invite his uncle to Christmas dinner and two gentlemen also come to Scrooge's offices, collecting money in the spirit of the season. Scrooge rebuffs his nephew and complains that it isn't worth looking after the poor, as their deaths will decrease the surplus population. Fred is shocked at his uncle's uncharitable and cold nature, but repeats his invitation, makes his own donation and departs.
  Later that evening, Scrooge finds himself face to face with the spirits of his former business partners, Jacob and Robert Marley (Statler and Waldorf) who have been condemned to shackles in the afterlife as payment for the horrible deeds they committed in life. They warn him that he will share the same fate, only worse, if he doesn't change his ways, and foretell the coming of three spirits throughout the night.
  Mr. Scrooge is first visited by the Ghost of Christmas Past, a child-like spectre who takes Scrooge on a journey back through time to his youth. He recalls his early school days, during which he focused on his studies; the meeting of a young woman named Belle (Meredith Braun), with whom he would later fall in love; and the final parting between Belle and Scrooge, despite Scrooge's protests that he would marry her as soon as he had enough money. Later, Scrooge meets the Ghost of Christmas Present, a large, festive creature with a booming voice who lives only for the here and now. He gives Scrooge a glimpse into the holiday celebration of others, including Bob Cratchit and his family who, although poor, are enjoying Christmas together and reveling in the anticipation of the Christmas goose. The Spirit also shows Scrooge's own family, who aren't above cracking jokes at Scrooge's expense. Later, Scrooge meets the Ghost of Christmas Yet to Come, a silent entity, who reveals the chilling revelation that young Tiny Tim (Robin the Frog) will not survive the coming year, thanks in no small part to the impoverished existence of the Cratchit family. Furthermore, it is revealed that when Scrooge's own time has passed, others will certainly delight in his absence from the world, with local businessmen attending his funeral only for the free food and Scrooge's servants stealing the very clothes he was to have been buried in. It is this final epiphany that jolts Scrooge back into humanity, and makes him vow to celebrate with his fellow man. Scrooge goes about the town spreading good deeds and charity, plans a feast for Bob Cratchit and his kin, and learns to adopt the spirit of Christmas throughout the year.
Video
ID : 1
Format : HEVC
Format/Info : High Efficiency Video Coding
Format profile : Main 10@L5@High
Codec ID : V_MPEGH/ISO/HEVC
Duration : 1 h 26 min
Bit rate : 16.1 Mb/s
Width : 3 840 pixels
Height : 2 160 pixels
Display aspect ratio : 16:9
Frame rate mode : Constant
Frame rate : 23.976 (24000/1001) FPS
Color space : YUV
Chroma subsampling : 4:2:0
Bit depth : 10 bits
Bits/(Pixel*Frame) : 0.081
Stream size : 9.75 GiB (98%)
Default : Yes
Forced : No
Color range : Limited
Color primaries : BT.2020
Transfer characteristics : PQ
Matrix coefficients : BT.2020 non-constant

Audio
ID : 2
Format : E-AC-3
Format/Info : Enhanced AC-3
Commercial name : Dolby Digital Plus
Codec ID : A_EAC3
Duration : 1 h 26 min
Bit rate mode : Constant
Bit rate : 256 kb/s
Channel(s) : 6 channels
Channel layout : L R C LFE Ls Rs
Sampling rate : 48.0 kHz
Frame rate : 31.250 FPS (1536 SPF)
Compression mode : Lossy
Stream size : 159 MiB (2%)
Title : English
Language : English
Service kind : Complete Main
Default : Yes
Forced : No

58e2f064d07dc.png
2044b21ba3775.png
e94c842ba57e0.png

游客,如果您要查看本帖隐藏内容请回复
发表于 2020-2-25 21:33:00 | 显示全部楼层
圣诞欢歌.The Muppet Christmas Carol.1992.美国.喜剧、音乐、歌舞、家庭、奇幻
您需要登录后才可以回帖 登录 | 立即注册 用百度帐号登录

本版积分规则

手机版

轻松易点,迅速到家!

官方微信

扫描二维码,即刻与小易亲密互动,还有劲爆优惠等你来拿!

订阅QQ邮件

第一手促销资讯,尊享邮件特惠商品,优惠不错过!

广告招商QQ:2295479776|小黑屋|手机版|首发之家论坛 |网站地图

GMT+8, 2020-4-9 05:17 , Processed in 0.123489 second(s), 24 queries , XCache On.

Powered by Discuz! X3.4

@ 2001-2013 Comsenz Inc.

快速回复 返回顶部 返回列表