立即注册
 找回密码
 立即注册

扫一扫,访问微社区

用百度帐号登录

只需两步,快速登录

查看: 180|回复: 1

[其他] 帕克兰之后 After.Parkland.2019.720p.HULU.WEBRip.AAC2.0.x264-TEPES 1.88GB

[复制链接]
发表于 2020-2-25 11:25:11 | 显示全部楼层 |阅读模式
帖子完整标题:帕克兰之后 After.Parkland.2019.720P.HULU.WEBRip.AAC2.0.x264-TEPES 1.88GB

9c5c9ad943155.png

◎译  名 帕克兰之后
◎片  名 After Parkland
◎年  代 2019
◎产  地 美国
◎类  别 纪录片
◎语  言 英语
◎上映日期 2019-10-18(美国)
◎IMDb评分 6.1/10 from 40 users
◎IMDb链接 https://www.imdb.com/title/tt9099136
◎豆瓣评分 0/10 from 0 users
◎豆瓣链接 https://movie.douban.com/subject/34846965/
◎片  长 92分钟
◎导  演 Jake Lefferman / Emily Taguchi

◎标  签 美国 | 记录片 | 纪录片 | 电影 | 犯罪 | 2010s

◎简  介

  暂无相关剧情介绍
Video
ID : 1
Format : AVC
Format/Info : Advanced Video Codec
Format profile : High@L3.1
Format settings : CABAC / 5 Ref Frames
Format settings, CABAC : Yes
Format settings, Reference frames : 5 frames
Codec ID : V_MPEG4/ISO/AVC
Duration : 1 h 32 min
Bit rate : 2 848 kb/s
Width : 1 280 pixels
Height : 720 pixels
Display aspect ratio : 16:9
Frame rate mode : Constant
Frame rate : 29.970 (30000/1001) FPS
Color space : YUV
Chroma subsampling : 4:2:0
Bit depth : 8 bits
Scan type : Progressive
Bits/(Pixel*Frame) : 0.103
Stream size : 1.84 GiB (98%)
Default : Yes
Forced : No

Audio
ID : 2
Format : AAC LC SBR
Format/Info : Advanced Audio Codec Low Complexity with Spectral Band Replication
Commercial name : HE-AAC
Format settings : Explicit
Codec ID : A_AAC-2
Duration : 1 h 32 min
Bit rate : 64.0 kb/s
Channel(s) : 2 channels
Channel layout : L R
Sampling rate : 48.0 kHz
Frame rate : 23.438 FPS (2048 SPF)
Compression mode : Lossy
Stream size : 42.2 MiB (2%)
Language : English
Default : Yes
Forced : No

Text #1
ID : 3
Format : UTF-8
Codec ID : S_TEXT/UTF8
Codec ID/Info : UTF-8 Plain Text
Duration : 1 h 31 min
Bit rate : 76 b/s
Count of elements : 1807
Stream size : 51.6 KiB (0%)
Language : English
Default : No
Forced : No

Text #2
ID : 4
Format : UTF-8
Codec ID : S_TEXT/UTF8
Codec ID/Info : UTF-8 Plain Text
Duration : 1 h 30 min
Bit rate : 76 b/s
Count of elements : 1570
Stream size : 50.8 KiB (0%)
Language : Spanish
Default : No
Forced : No

ba47323159d5c.png
e29c93be4aeab.png
f77ce742b7b36.png
游客,如果您要查看本帖隐藏内容请回复
发表于 2020-2-28 09:48:39 | 显示全部楼层
多谢楼主分享
您需要登录后才可以回帖 登录 | 立即注册 用百度帐号登录

本版积分规则

手机版

轻松易点,迅速到家!

官方微信

扫描二维码,即刻与小易亲密互动,还有劲爆优惠等你来拿!

订阅QQ邮件

第一手促销资讯,尊享邮件特惠商品,优惠不错过!

广告招商QQ:2295479776|小黑屋|手机版|首发之家论坛 |网站地图

GMT+8, 2020-4-9 04:34 , Processed in 0.124921 second(s), 24 queries , XCache On.

Powered by Discuz! X3.4

@ 2001-2013 Comsenz Inc.

快速回复 返回顶部 返回列表