立即注册
 找回密码
 立即注册

扫一扫,访问微社区

用百度帐号登录

只需两步,快速登录

查看: 136|回复: 3

[剧情] 热舞飞扬/战斗 Battle.2018.1080p.BluRay.x264-GRUNDiG 8.73GB -->

[复制链接]
发表于 2020-2-20 09:55:50 | 显示全部楼层 |阅读模式

帖子完整标题:热舞飞扬/战斗 Battle.2018.1080P.BluRay.x264-GRUNDiG 8.73GB

9118083ee189f.png

◎译  名 热舞飞扬 / 战斗
◎片  名 Battle
◎年  代 2018
◎产  地 挪威 / 瑞典 / 丹麦 / 荷兰
◎类  别 剧情
◎语  言 挪威语 / 英语
◎上映日期 2018-09-28(挪威)
◎IMDb评分 6.0/10 from 3036 users
◎IMDb链接 https://www.imdb.com/title/tt6854672
◎豆瓣评分 5.2/10 from 147 users
◎豆瓣链接 https://movie.douban.com/subject/30306066/
◎片  长 95分钟
◎导  演 Katarina Launing
◎编  剧 Maja Lunde
◎主  演 Lisa Teige
      Vebj?rn Enger
      Karen-Lise Mynster
      Stig R. Amdam
      Sigyn ?sa S?tereng
      Charlott Utzig


◎标  签 舞蹈 | 挪威 | 青春 | 爱情 | 北欧 | Netflix | 剧情 | 2018

◎简  介

  Apparently Amalie has everything, but one day it collapses, and she has to move from it all - then she meets Mikael, a hip-hop dancer, good at battle.
Video
ID : 1
Format : AVC
Format/Info : Advanced Video Codec
Format profile : High@L4.1
Format settings : CABAC / 5 Ref Frames
Format settings, CABAC : Yes
Format settings, Reference frames : 5 frames
Codec ID : V_MPEG4/ISO/AVC
Duration : 1 h 41 min
Bit rate : 10.8 Mb/s
Width : 1 920 pixels
Height : 808 pixels
Display aspect ratio : 2.40:1
Frame rate mode : Constant
Frame rate : 24.000 FPS
Color space : YUV
Chroma subsampling : 4:2:0
Bit depth : 8 bits
Scan type : Progressive
Bits/(Pixel*Frame) : 0.290
Stream size : 7.65 GiB (88%)
Writing library : x264 core 157 r2935 545de2f
Encoding settings : cabac=1 / ref=5 / deblock=1:0:0 / analyse=0x3:0x113 / me=umh / subme=9 / psy=1 / psy_rd=1.00:0.00 / mixed_ref=1 / me_range=16 / chroma_me=1 / trellis=1 / 8x8dct=1 / cqm=0 / deadzone=21,11 / fast_pskip=1 / chroma_qp_offset=-2 / threads=18 / lookahead_threads=1 / sliced_threads=0 / nr=0 / decimate=1 / interlaced=0 / bluray_compat=0 / constrained_intra=0 / bframes=3 / b_pyramid=2 / b_adapt=1 / b_bias=0 / direct=3 / weightb=1 / open_gop=0 / weightp=2 / keyint=240 / keyint_min=24 / scenecut=40 / intra_refresh=0 / rc_lookahead=50 / rc=2pass / mbtree=1 / bitrate=10804 / ratetol=1.0 / qcomp=0.60 / qpmin=0 / qpmax=69 / qpstep=4 / cplxblur=20.0 / qblur=0.5 / ip_ratio=1.40 / aq=1:1.00
Language : Norwegian
Default : Yes
Forced : No

Audio
ID : 2
Format : DTS
Format/Info : Digital Theater Systems
Codec ID : A_DTS
Duration : 1 h 41 min
Bit rate mode : Constant
Bit rate : 1 509 kb/s
Channel(s) : 6 channels
Channel layout : C L R Ls Rs LFE
Sampling rate : 48.0 kHz
Frame rate : 93.750 FPS (512 SPF)
Bit depth : 24 bits
Compression mode : Lossy
Stream size : 1.07 GiB (12%)
Language : Norwegian
Default : Yes
Forced : No

Text
ID : 3
Format : UTF-8
Codec ID : S_TEXT/UTF8
Codec ID/Info : UTF-8 Plain Text
Duration : 1 h 35 min
Bit rate : 32 b/s
Count of elements : 690
Stream size : 23.0 KiB (0%)
Language : English
Default : Yes
Forced : No

Menu
00:00:00.000 : en:00:00:00.000
00:09:56.375 : en:00:09:56.375
00:20:45.500 : en:00:20:45.500
00:30:50.041 : en:00:30:50.041
00:41:39.875 : en:00:41:39.875
00:50:35.875 : en:00:50:35.875
01:01:55.166 : en:01:01:55.166
01:12:11.375 : en:01:12:11.375
01:22:21.916 : en:01:22:21.916
01:31:22.166 : en:01:31:22.166

5e7001992cd65.png
9427e2036fe25.png
f5d3ff02f2cae.png

游客,如果您要查看本帖隐藏内容请回复
发表于 2020-2-20 14:33:11 | 显示全部楼层
楼主辛苦了,谢谢首发之家!
发表于 2020-2-20 15:23:21 | 显示全部楼层
楼主辛苦了,谢谢首发之家!!
发表于 2020-2-22 11:35:23 | 显示全部楼层
楼主辛苦了,感谢首发之荚丁!
您需要登录后才可以回帖 登录 | 立即注册 用百度帐号登录

本版积分规则

手机版

轻松易点,迅速到家!

官方微信

扫描二维码,即刻与小易亲密互动,还有劲爆优惠等你来拿!

订阅QQ邮件

第一手促销资讯,尊享邮件特惠商品,优惠不错过!

广告招商QQ:2295479776|小黑屋|手机版|首发之家论坛 |网站地图

GMT+8, 2020-3-28 22:39 , Processed in 0.117806 second(s), 24 queries , XCache On.

Powered by Discuz! X3.4

@ 2001-2013 Comsenz Inc.

快速回复 返回顶部 返回列表