立即注册
 找回密码
 立即注册

扫一扫,访问微社区

用百度帐号登录

只需两步,快速登录

查看: 148|回复: 0

[喜剧] 凯文·史密斯:致命无声 Kevin.Smith.Silent.But.Deadly.2018.1080p

[复制链接]
发表于 2020-2-20 09:52:43 | 显示全部楼层 |阅读模式
帖子完整标题:凯文·史密斯:致命无声 Kevin.Smith.Silent.But.Deadly.2018.1080P.BluRay.x264.DTS-FGT 7.71GB



5c2d44a767009.png

◎译  名 凯文·史密斯:致命无声
◎片  名 Kevin Smith: Silent But Deadly
◎年  代 2018
◎产  地 美国
◎类  别 喜剧
◎语  言 英语
◎上映日期 2018-05-11(美国)
◎IMDb评分 6.9/10 from 678 users
◎IMDb链接 https://www.imdb.com/title/tt8102036
◎豆瓣评分 0/10 from 0 users
◎豆瓣链接 https://movie.douban.com/subject/30221716/
◎片  长 57分钟
◎导  演 Gil Cunha / Brian Volk-Weiss
◎编  剧 凯文·史密斯 Kevin Smith
◎主  演 凯文·史密斯 Kevin Smith


◎标  签 待下 | ★★★ | Standup | 2019 | 2010-2019

◎简  介

  Kevin Smith is anything but quiet in this new comedy special that was recorded an hour before his heart attack in February. Before he nearly died backstage, onstage he discusses his marriage, his kid and his work (or lack thereof).
Video
ID : 1
Format : AVC
Format/Info : Advanced Video Codec
Format profile : High@L4.1
Format settings : CABAC / 4 Ref Frames
Format settings, CABAC : Yes
Format settings, Reference frames : 4 frames
Codec ID : V_MPEG4/ISO/AVC
Duration : 1 h 24 min
Bit rate : 11.5 Mb/s
Width : 1 920 pixels
Height : 1 080 pixels
Display aspect ratio : 16:9
Frame rate mode : Constant
Frame rate : 23.976 (24000/1001) FPS
Color space : YUV
Chroma subsampling : 4:2:0
Bit depth : 8 bits
Scan type : Progressive
Bits/(Pixel*Frame) : 0.231
Stream size : 6.81 GiB (88%)
Title : Kevin.Smith.Silent.But.Deadly.2018.1080p.BluRay.x264.DTS-FGT
Writing library : x264 core 148 r2795M aaa9aa8
Encoding settings : cabac=1 / ref=4 / deblock=1:-2:-2 / analyse=0x3:0x113 / me=umh / subme=9 / psy=1 / psy_rd=1.00:0.15 / mixed_ref=1 / me_range=16 / chroma_me=1 / trellis=2 / 8x8dct=1 / cqm=0 / deadzone=21,11 / fast_pskip=1 / chroma_qp_offset=-3 / threads=24 / lookahead_threads=3 / sliced_threads=0 / nr=0 / decimate=1 / interlaced=0 / bluray_compat=0 / constrained_intra=0 / bframes=3 / b_pyramid=2 / b_adapt=1 / b_bias=0 / direct=3 / weightb=1 / open_gop=0 / weightp=2 / keyint=250 / keyint_min=25 / scenecut=40 / intra_refresh=0 / rc_lookahead=50 / rc=2pass / mbtree=1 / bitrate=11500 / ratetol=1.0 / qcomp=0.60 / qpmin=0 / qpmax=69 / qpstep=4 / cplxblur=20.0 / qblur=0.5 / vbv_maxrate=31250 / vbv_bufsize=31250 / nal_hrd=none / filler=0 / ip_ratio=1.40 / aq=1:1.00
Language : English
Default : Yes
Forced : No

Audio
ID : 2
Format : DTS
Format/Info : Digital Theater Systems
Codec ID : A_DTS
Duration : 1 h 24 min
Bit rate mode : Constant
Bit rate : 1 509 kb/s
Channel(s) : 2 channels
Channel layout : L R
Sampling rate : 48.0 kHz
Frame rate : 93.750 FPS (512 SPF)
Bit depth : 24 bits
Compression mode : Lossy
Stream size : 916 MiB (12%)
Title : Kevin.Smith.Silent.But.Deadly.2018.1080p.BluRay.x264.DTS-FGT
Language : English
Default : Yes
Forced : No

Text
ID : 3
Format : UTF-8
Codec ID : S_TEXT/UTF8
Codec ID/Info : UTF-8 Plain Text
Duration : 1 h 24 min
Bit rate : 139 b/s
Count of elements : 2038
Stream size : 86.7 KiB (0%)
Language : English
Default : Yes
Forced : No

Menu
00:00:00.000 : en:Chapter 01
00:07:49.302 : en:Chapter 02
00:16:22.648 : en:Chapter 03
00:26:02.811 : en:Chapter 04
00:33:58.995 : en:Chapter 05
00:38:24.511 : en:Chapter 06
00:42:52.445 : en:Chapter 07
00:51:15.739 : en:Chapter 08
00:59:35.238 : en:Chapter 09
01:09:24.243 : en:Chapter 10
01:17:40.489 : en:Chapter 11
01:24:09.586 : en:Chapter 12

b8a62279707f4.png
734f678e18c7c.png
游客,如果您要查看本帖隐藏内容请回复
您需要登录后才可以回帖 登录 | 立即注册 用百度帐号登录

本版积分规则

手机版

轻松易点,迅速到家!

官方微信

扫描二维码,即刻与小易亲密互动,还有劲爆优惠等你来拿!

订阅QQ邮件

第一手促销资讯,尊享邮件特惠商品,优惠不错过!

广告招商QQ:2295479776|小黑屋|手机版|首发之家论坛 |网站地图

GMT+8, 2020-4-9 05:13 , Processed in 0.127447 second(s), 23 queries , XCache On.

Powered by Discuz! X3.4

@ 2001-2013 Comsenz Inc.

快速回复 返回顶部 返回列表