立即注册
 找回密码
 立即注册

扫一扫,访问微社区

用百度帐号登录

只需两步,快速登录

查看: 84|回复: 2

[动漫] 河童之夏 Summer.Days.With.Coo.2007.JAPANESE.1080p.BluRay.x264.DTS-FGT 12.57GB

[复制链接]
发表于 2020-2-20 09:50:46 | 显示全部楼层 |阅读模式

帖子完整标题:河童之夏 Summer.Days.With.Coo.2007.JAPANESE.1080P.BluRay.x264.DTS-FGT 12.57GB

e14100acf71c2.png

◎译  名 河童之夏 / Summer Days with Coo / 跟河童小咕的暑假时光
◎片  名 河童のクゥと夏休み
◎年  代 2007
◎产  地 日本
◎类  别 喜剧 / 动画 / 奇幻
◎语  言 日语
◎上映日期 2007-07-28(日本)
◎IMDb评分 7.4/10 from 1564 users
◎IMDb链接 https://www.imdb.com/title/tt1179773
◎豆瓣评分 8.7/10 from 61339 users
◎豆瓣链接 https://movie.douban.com/subject/2982823/
◎片  长 138分钟
◎导  演 原惠一 Keiichi Hara
◎编  剧 原惠一 Keiichi Hara / 木暮正夫 Masao Kogure
◎主  演 富泽风斗 Kazato Tomizawa
      横川贵大 Takahiro Yokokawa
      田中直树 Naoki Tanaka
      西田尚美 Naomi Nishida
      松元环季 Tamaki Matsumoto
      植松夏希 Kazuki Matsuoka
      羽佐间道夫 Hazama Michio
      藤本让 Yuzuru Fujimoto
      富田耕生 Kousei Tomita
      一城美由希 Ichijou Miyuki
      岩田安生 Yasuo Iwata
      稻叶实 Minoru Inaba
      定冈小百合 Sadaoka Sayuri
      西川宏美
      濑那步美
      平野正人 Hirano Masato
      泷本富士子 Fujiko Takimoto
      井上里花
      成田剑 Ken Narita
      木村雅史 Masafumi Kimura
      大川透 T?ru ?kawa
      太田真一郎 Shinichir? ?ta
      田中一成 Tanaka Kazunari
      野上尤加奈 Yukana Nogami
      新千惠子
      北村允志
      河野裕
      纳谷六朗 Rokur? Naya
      玄田哲章 Tessh? Genda
      乡里大辅 Daisuke G?ri
      佐佐木敏
      藤原启治 Keiji Fujiwara
      矢岛晶子 Akiko Yajima
      优希比吕 Hiro Yuuki
      子安武人 Takehito Koyasu
      阪口大助 Daisuke Sakaguchi
      大西健晴 Oonishi Takeharu
      川中子雅人 Kawanago Masahito
      山中真寻 Yamanaka Masahiro
      岛香裕 Yu Shimaka
      中村千绘 Chie Nakamura
      永岛由子 Y?ko Nagashima
      宮本侑芽 Miyamoto Yume
      安达直人 Naoto Adachi
      松冈和晖
      吉武怜朗 Reo Yoshitake
      村上想太
      池田恭祐
      日高里菜 Rina Hidaka
      吉原沙希
      枚田菜菜子
      泷原祐太
      安原义人 Yoshito Yasuhara
      柳乐健一 Ken'ichi Nagira
      照屋年之 Gori


◎标  签 动画 | 日本 | 河童之夏 | 人性 | 动漫 | 温情 | 2007 | 感人

◎简  介

  就快放暑假了,小学生上原康一在放学回家的路上捡到一块大石头。他把石头带回了家,没想到用水一洗,里面竟跳出一只小河童来。小河童对他“咕”的叫了一声,于是康一就给它取名为“小咕”。
  小咕会说人类的语言,几百年来他一直被埋在在地下。康一很快就和小咕成了好朋友,他们一起洗澡,一起吃饭,一起睡觉。而其它家庭成员也接受了小咕,小河童成了上原一家的秘密。
  一天,小咕提出想回家和伙伴们在一起。康一为了让小咕了解外面的世界,悄悄把它带了出去。小咕发现环境已经面目全非,大吃了一惊,这个不适合就河童生存的地方根本就找不到伙伴。看到小咕难过,康一也不好受。他和小咕一起外出旅行,来到了还保存着河童传说的远野县。两人在美丽的大自然中找到了适合河童生活的地方,小咕愉快地在清澈的河里游了起来,康一也为它高兴。可是,在这里也怎么都找不到其它河童。康一听到村民们说“抓住一只河童能得一千万呢!”,赶忙带着小咕离开了那里。
  回到家,康一讶异地撞见了一个小报记者。原来那人听说上原家养着一只河童,一定要拍照。小咕的秘密终于被大家知道了。康一的爸爸被公司勒令一定要让河童上电视。为了上原一家,小咕答应参加电视节目。然而在到场嘉宾里,它看到了一个长得很像杀父凶手的人。就在小咕被恐惧包围的时候,电视节目现场发生了意外。它拼命逃到了外面,然而无论跑到哪里都会看到黑压压的人群。
  为了摆脱让它害怕的人类,小咕爬上了东京塔。夏季的烈日照得它精疲力竭。小咕俯瞰着城市,独自低语道:“哪里都找不到一个安静的地方,这里是人类的窝。我已经不行了。我要去爸爸那里……”

◎获奖情况

  第31届日本电影学院奖(2008)
  最佳动画片(提名)
Video
ID : 1
Format : AVC
Format/Info : Advanced Video Codec
Format profile : High@L4.1
Format settings : CABAC / 4 Ref Frames
Format settings, CABAC : Yes
Format settings, Reference frames : 4 frames
Codec ID : V_MPEG4/ISO/AVC
Duration : 2 h 18 min
Bit rate : 11.5 Mb/s
Width : 1 920 pixels
Height : 1 080 pixels
Display aspect ratio : 16:9
Frame rate mode : Constant
Frame rate : 23.976 (24000/1001) FPS
Color space : YUV
Chroma subsampling : 4:2:0
Bit depth : 8 bits
Scan type : Progressive
Bits/(Pixel*Frame) : 0.231
Stream size : 11.1 GiB (88%)
Title : Summer.Days.With.Coo.2007.JAPANESE.1080p.BluRay.x264.DTS-FGT
Writing library : x264 core 148 r2795M aaa9aa8
Encoding settings : cabac=1 / ref=4 / deblock=1:1:1 / analyse=0x3:0x113 / me=umh / subme=8 / psy=1 / psy_rd=0.50:0.00 / mixed_ref=1 / me_range=32 / chroma_me=1 / trellis=2 / 8x8dct=1 / cqm=0 / deadzone=21,11 / fast_pskip=1 / chroma_qp_offset=-2 / threads=34 / lookahead_threads=3 / sliced_threads=0 / nr=0 / decimate=1 / interlaced=0 / bluray_compat=0 / constrained_intra=0 / bframes=3 / b_pyramid=2 / b_adapt=1 / b_bias=0 / direct=3 / weightb=1 / open_gop=0 / weightp=2 / keyint=240 / keyint_min=24 / scenecut=40 / intra_refresh=0 / rc_lookahead=50 / rc=2pass / mbtree=1 / bitrate=11500 / ratetol=1.0 / qcomp=0.60 / qpmin=0 / qpmax=69 / qpstep=4 / cplxblur=20.0 / qblur=0.5 / vbv_maxrate=31250 / vbv_bufsize=31250 / nal_hrd=none / filler=0 / ip_ratio=1.40 / aq=3:0.60
Language : Japanese
Default : Yes
Forced : No

Audio
ID : 2
Format : DTS
Format/Info : Digital Theater Systems
Codec ID : A_DTS
Duration : 2 h 18 min
Bit rate mode : Constant
Bit rate : 1 509 kb/s
Channel(s) : 6 channels
Channel layout : C L R Ls Rs LFE
Sampling rate : 48.0 kHz
Frame rate : 93.750 FPS (512 SPF)
Bit depth : 24 bits
Compression mode : Lossy
Stream size : 1.46 GiB (12%)
Title : Summer.Days.With.Coo.2007.JAPANESE.1080p.BluRay.x264.DTS-FGT
Language : Japanese
Default : Yes
Forced : No

Text
ID : 3
Format : UTF-8
Codec ID : S_TEXT/UTF8
Codec ID/Info : UTF-8 Plain Text
Duration : 2 h 18 min
Bit rate : 33 b/s
Count of elements : 1489
Stream size : 34.3 KiB (0%)
Language : English
Default : Yes
Forced : No

Menu
00:00:00.000 : en:Chapter 01
00:06:24.092 : en:Chapter 02
00:10:53.361 : en:Chapter 03
00:16:42.585 : en:Chapter 04
00:20:28.436 : en:Chapter 05
00:24:44.191 : en:Chapter 06
00:29:59.506 : en:Chapter 07
00:33:25.003 : en:Chapter 08
00:39:01.005 : en:Chapter 09
00:45:13.377 : en:Chapter 10
00:49:39.185 : en:Chapter 11
00:55:00.631 : en:Chapter 12
01:00:05.477 : en:Chapter 13
01:06:01.583 : en:Chapter 14
01:09:29.040 : en:Chapter 15
01:15:13.384 : en:Chapter 16
01:21:33.931 : en:Chapter 17
01:29:42.627 : en:Chapter 18
01:34:43.303 : en:Chapter 19
01:41:49.353 : en:Chapter 20
01:50:21.740 : en:Chapter 21
01:54:41.583 : en:Chapter 22
02:01:17.979 : en:Chapter 23
02:09:28.302 : en:Chapter 24
02:14:33.315 : en:Chapter 25

4911ea762731c.png
62c9671578671.png
4c6ee16ffbb55.png

游客,如果您要查看本帖隐藏内容请回复
发表于 2020-2-25 19:03:16 | 显示全部楼层
保卫奇侠保卫奇侠
发表于 前天 00:37 | 显示全部楼层
先来收躲,慢慢看
您需要登录后才可以回帖 登录 | 立即注册 用百度帐号登录

本版积分规则

手机版

轻松易点,迅速到家!

官方微信

扫描二维码,即刻与小易亲密互动,还有劲爆优惠等你来拿!

订阅QQ邮件

第一手促销资讯,尊享邮件特惠商品,优惠不错过!

广告招商QQ:2295479776|小黑屋|手机版|首发之家论坛 |网站地图

GMT+8, 2020-3-28 23:46 , Processed in 0.129246 second(s), 24 queries , XCache On.

Powered by Discuz! X3.4

@ 2001-2013 Comsenz Inc.

快速回复 返回顶部 返回列表