立即注册
 找回密码
 立即注册

扫一扫,访问微社区

用百度帐号登录

只需两步,快速登录

查看: 111|回复: 6

[喜剧] 西游记女儿国 The.Monkey.King.3.2018.CHINESE.1080p.BluRay.x264-iKiW 12.47GB

[复制链接]
发表于 2020-2-20 09:49:42 | 显示全部楼层 |阅读模式
0f0b0bfd19c41.png
◎译  名 The Monkey King 3: Kingdom of Women / 西游记·女儿国 / 西游记之女儿国
◎片  名 西游记女儿国
◎年  代 2018
◎产  地 中国大陆 / 中国香港
◎类  别 喜剧 / 爱情 / 奇幻
◎语  言 汉语普通话
◎上映日期 2018-02-16(中国大陆)
◎IMDb评分 5.4/10 from 1062 users
◎IMDb链接 https://www.imdb.com/title/tt6466464
◎豆瓣评分 4.4/10 from 119385 users
◎豆瓣链接 https://movie.douban.com/subject/25829175/
◎片  长 116分钟
◎导  演 郑保瑞 Pou-Soi Cheang
◎编  剧 文宁 Ning Wen
◎主  演 郭富城 Aaron Kwok
      冯绍峰 Shaofeng Feng
      赵丽颖 Liying Zhao
      小沈阳 Xiao Shen-Yang
      罗仲谦 Chung Him Law
      林志玲 Chiling Lin
      梁咏琪 Gigi Leung
      刘涛 Tao Liu
      孙伊涵 Yihan Sun
      苑琼丹 King-Tan Yuen
      潘斌龙 Bin-long Pan
      陈雅丽 Allie Chan
      施诗 Shi Shi


◎标  签 西游记 | 爱情 | 魔幻 | 奇幻 | 国产 | 2018 | 喜剧 | 古装

◎简  介

  唐僧师徒途经忘川河,因激怒河神而误入西梁女界。闯入其中,众人才发现这个国家只有女性,并且建国以来此地就没来过男性。而且国中立有祖训,将男人视为天敌。典籍中更有预言,指明有朝一日,会有东土而来的僧人带着一只猴子、一头猪和一个小蓝人闯入其中。他们到来之日,便是女儿国走向毁灭之时。

◎获奖情况

  第38届香港电影金像奖(2019)
  最佳美术指导(提名) 曹和成
  最佳服装造型设计(提名) 余家安 / 利碧君
  最佳视觉效果(提名) Jay Seung Jaegal / Branden Juwon Lee / 徐建

  第4届豆瓣电影年度榜单(2017)
  最值得期待的华语电影(提名)
Video
ID : 1
Format : AVC
Format/Info : Advanced Video Codec
Format profile : High@L4.1
Format settings : CABAC / 4 Ref Frames
Format settings, CABAC : Yes
Format settings, Reference frames : 4 frames
Codec ID : V_MPEG4/ISO/AVC
Duration : 1 h 54 min
Bit rate : 15.0 Mb/s
Width : 1 920 pixels
Height : 1 012 pixels
Display aspect ratio : 1.897
Frame rate mode : Constant
Frame rate : 23.976 (24000/1001) FPS
Color space : YUV
Chroma subsampling : 4:2:0
Bit depth : 8 bits
Scan type : Progressive
Bits/(Pixel*Frame) : 0.323
Stream size : 12.0 GiB (96%)
Writing library : x264 core 129 r2245 bc13772
Encoding settings : cabac=1 / ref=4 / deblock=1:-3:-3 / analyse=0x3:0x133 / me=umh / subme=11 / psy=1 / psy_rd=1.05:0.05 / mixed_ref=1 / me_range=64 / chroma_me=1 / trellis=2 / 8x8dct=1 / cqm=0 / deadzone=21,11 / fast_pskip=0 / chroma_qp_offset=-3 / threads=6 / lookahead_threads=1 / sliced_threads=0 / nr=0 / decimate=1 / interlaced=0 / bluray_compat=0 / constrained_intra=0 / bframes=8 / b_pyramid=2 / b_adapt=2 / b_bias=0 / direct=3 / weightb=1 / open_gop=0 / weightp=2 / keyint=250 / keyint_min=23 / scenecut=40 / intra_refresh=0 / rc_lookahead=60 / rc=2pass / mbtree=1 / bitrate=15039 / ratetol=1.0 / qcomp=0.60 / qpmin=0 / qpmax=69 / qpstep=4 / cplxblur=20.0 / qblur=0.5 / vbv_maxrate=40000 / vbv_bufsize=30000 / nal_hrd=none / ip_ratio=1.40 / aq=1:0.65
Language : English
Default : Yes
Forced : No

Audio
ID : 2
Format : AC-3
Format/Info : Audio Coding 3
Commercial name : Dolby Digital
Codec ID : A_AC3
Duration : 1 h 54 min
Bit rate mode : Constant
Bit rate : 640 kb/s
Channel(s) : 6 channels
Channel layout : L R C LFE Ls Rs
Sampling rate : 48.0 kHz
Frame rate : 31.250 FPS (1536 SPF)
Bit depth : 16 bits
Compression mode : Lossy
Stream size : 522 MiB (4%)
Title : 粤语
Language : Chinese
Service kind : Complete Main
Default : Yes
Forced : No

Text #1
ID : 3
Format : UTF-8
Codec ID : S_TEXT/UTF8
Codec ID/Info : UTF-8 Plain Text
Duration : 1 h 48 min
Bit rate : 29 b/s
Count of elements : 1212
Stream size : 23.5 KiB (0%)
Language : English
Default : Yes
Forced : No

Text #2
ID : 4
Format : UTF-8
Codec ID : S_TEXT/UTF8
Codec ID/Info : UTF-8 Plain Text
Duration : 1 h 48 min
Bit rate : 22 b/s
Count of elements : 1185
Stream size : 17.9 KiB (0%)
Title : 简体
Language : Chinese
Default : No
Forced : No

Text #3
ID : 5
Format : UTF-8
Codec ID : S_TEXT/UTF8
Codec ID/Info : UTF-8 Plain Text
Duration : 1 h 48 min
Bit rate : 22 b/s
Count of elements : 1185
Stream size : 17.9 KiB (0%)
Title : 繁体
Language : Chinese
Default : No
Forced : No

7f0e7c7bd04f1.png
0773a8463b769.png
86daa31f47b1a.png

游客,如果您要查看本帖隐藏内容请回复
发表于 2020-2-20 10:23:52 | 显示全部楼层
首发之家不能没有像楼主这样的人才!
发表于 2020-2-21 14:37:25 | 显示全部楼层
楼主辛苦了,谢谢首发之家!!

发表于 2020-2-21 19:22:52 | 显示全部楼层
可以下来看看
发表于 2020-2-22 14:35:12 | 显示全部楼层
我看不错噢,谢谢首发之家!
发表于 2020-2-24 17:13:48 | 显示全部楼层
贺岁大片,下来看看
发表于 2020-2-25 19:20:29 | 显示全部楼层
楼主辛苦了,谢谢首发之家!!
您需要登录后才可以回帖 登录 | 立即注册 用百度帐号登录

本版积分规则

手机版

轻松易点,迅速到家!

官方微信

扫描二维码,即刻与小易亲密互动,还有劲爆优惠等你来拿!

订阅QQ邮件

第一手促销资讯,尊享邮件特惠商品,优惠不错过!

广告招商QQ:2295479776|小黑屋|手机版|首发之家论坛 |网站地图

GMT+8, 2020-4-9 05:16 , Processed in 0.129455 second(s), 24 queries , XCache On.

Powered by Discuz! X3.4

@ 2001-2013 Comsenz Inc.

快速回复 返回顶部 返回列表