立即注册
 找回密码
 立即注册

扫一扫,访问微社区

用百度帐号登录

只需两步,快速登录

查看: 105|回复: 4

[动作] 人狼 Illang.The.Wolf.Brigade.2018.KOREAN.1080p.NF.WEBRip.DD5.1.x264-CM 5.59GB

[复制链接]
发表于 2020-2-20 09:42:24 | 显示全部楼层 |阅读模式
f217082369baa.png
◎译  名 人狼 / Illang: The Wolf Brigade
◎片  名 ??
◎年  代 2018
◎产  地 韩国
◎类  别 动作 / 爱情 / 科幻
◎语  言 韩语
◎上映日期 2018-07-25(韩国)
◎IMDb评分 6.0/10 from 3096 users
◎IMDb链接 https://www.imdb.com/title/tt3967878
◎豆瓣评分 5.3/10 from 4141 users
◎豆瓣链接 https://movie.douban.com/subject/20442984/
◎片  长 138分钟
◎导  演 金知云 Jee-woon Kim
◎编  剧 金知云 Jee-woon Kim / 押井守 Mamoru Oshii
◎主  演 姜栋元 Dong-won Kang
      韩孝周 Hyo-joo Han
      郑雨盛 Woo-sung Jung
      金武烈 Moo-yeol Kim
      韩艺礼 Ye-ri Han
      许峻豪 Jun-ho Heo
      崔珉豪 Min-ho Choi
      申银秀 Eun-soo Shin
      崔镇浩 Jin-ho Choi
      玉子妍 Ok Ja-yeon
      李濟延 Lee Je-yeon
      李东河 Lee Dong-Ha
      李率求 Seol-goo Lee
      沈昭英 So-yeong Sim
      郑元中 Won-jung Jeong
      金宰荣 Jae-young Kim
      刘尚宰 Sang-jae Yoo
      郑基燮 Gi-seop Jeong
      刘志龙 Ji-yong Yoo
      金范来 Kim Beop-rae
      金哲允 Cheol-yoon Kim
      林智亨 Ji-hyeong Im
      朴秉恩 Byung-eun Park
      文艺媛 Ye-won Moon
      全汝彬 Jeon Yeo-bin
      张元亨 Jang Won-hyeong
      洪仁 Hong In
      朴晟泽 Song-tech Park
      金炫俊 Kim Hyun-jun
      文在元 Jae-won Moon
      姜贤重 Hyun-joong Kang
      朴正植 Jeong-sik Park
      郑米楠 Mi-nam Jung
      朴亨洙 Park Hyoung-soo
      林哲亨 Lim Chul-hyung
      朴珠熙 Joo-hee Park
      金贤昌 Kim Hyeon-chang


◎标  签 韩国 | 动作 | 科幻 | 2018 | 政治 | 动画改编 | 剧情 | 爱情

◎简  介

  2024年,朝鲜半岛局势发生重大变化。为了抵制美、俄、中、日四国的压力,朝鲜与韩国决定统一。然而,韩国国内反对统一的呼声甚嚣尘上,怀有不同政治目的的“党派”则在乱象中起到推波助澜的作用。为此,韩国政府组建了全新的警察组织特殊机动队以镇压动乱,结果导致了果川走火事件。从此以后,特殊机动队遭到民众乃至部分政客的憎恶,而公安部更试图伺机解散特殊部队。2029年,在最近一次行动中受伤的特殊部队成员林钟景(姜栋元 饰),在昔日战友而今成为公安部干部韩尚宇(金武烈 饰)的安排下,与果川事件遇害女孩的姐姐李允熙(韩孝周 饰)会面。谁知,这却是一场攸关林钟景以及整个特殊部队命运的圈套……
  本片根据押井守的同名动画改编。

◎获奖情况

  第39届韩国电影青龙奖(2018)
  最佳摄影(提名)
  最佳美术(提名)

  第66届圣塞巴斯蒂安国际电影节(2018)
  金贝壳奖(提名) 金知云

  第55届韩国电影大钟奖(2018)
  最佳美术(提名)
  最佳服装
  最佳技术奖(提名)
  最佳照明(提名)
Video
ID : 1
Format : AVC
Format/Info : Advanced Video Codec
Format profile : Main@L4
Format settings : CABAC / 3 Ref Frames
Format settings, CABAC : Yes
Format settings, Reference frames : 3 frames
Codec ID : V_MPEG4/ISO/AVC
Duration : 2 h 19 min
Bit rate mode : Variable
Bit rate : 5 360 kb/s
Maximum bit rate : 8 040 kb/s
Width : 1 920 pixels
Height : 1 080 pixels
Display aspect ratio : 16:9
Frame rate mode : Constant
Frame rate : 23.976 (24000/1001) FPS
Color space : YUV
Chroma subsampling : 4:2:0
Bit depth : 8 bits
Scan type : Progressive
Bits/(Pixel*Frame) : 0.108
Stream size : 5.22 GiB (93%)
Writing library : x264 core 148 r2715 7e75228
Encoding settings : cabac=1 / ref=3 / deblock=1:0:0 / analyse=0x1:0x111 / me=umh / subme=10 / psy=1 / psy_rd=1.00:0.00 / mixed_ref=1 / me_range=24 / chroma_me=1 / trellis=2 / 8x8dct=0 / cqm=0 / deadzone=21,11 / fast_pskip=1 / chroma_qp_offset=-2 / threads=8 / lookahead_threads=1 / sliced_threads=0 / nr=0 / decimate=1 / interlaced=0 / bluray_compat=0 / stitchable=1 / constrained_intra=0 / bframes=2 / b_pyramid=0 / b_adapt=2 / b_bias=0 / direct=3 / weightb=1 / open_gop=0 / weightp=2 / keyint=48 / keyint_min=25 / scenecut=0 / intra_refresh=0 / rc_lookahead=48 / rc=2pass / mbtree=1 / bitrate=5360 / ratetol=1.0 / qcomp=0.50 / qpmin=6 / qpmax=51 / qpstep=4 / cplxblur=20.0 / qblur=0.5 / vbv_maxrate=8040 / vbv_bufsize=10720 / nal_hrd=vbr / filler=0 / ip_ratio=1.40 / aq=1:1.00
Default : Yes
Forced : No

Audio
ID : 2
Format : AC-3
Format/Info : Audio Coding 3
Commercial name : Dolby Digital
Codec ID : A_AC3
Duration : 2 h 19 min
Bit rate mode : Constant
Bit rate : 384 kb/s
Channel(s) : 6 channels
Channel layout : L R C LFE Ls Rs
Sampling rate : 48.0 kHz
Frame rate : 31.250 FPS (1536 SPF)
Compression mode : Lossy
Stream size : 384 MiB (7%)
Title : Korean
Language : Korean
Service kind : Complete Main
Default : No
Forced : No

Text #1
ID : 3
Format : UTF-8
Codec ID : S_TEXT/UTF8
Codec ID/Info : UTF-8 Plain Text
Duration : 2 h 18 min
Bit rate : 27 b/s
Count of elements : 845
Stream size : 27.7 KiB (0%)
Title : English [Full]
Language : English
Default : Yes
Forced : Yes

Text #2
ID : 4
Format : UTF-8
Codec ID : S_TEXT/UTF8
Codec ID/Info : UTF-8 Plain Text
Duration : 2 h 14 min
Bit rate : 1 b/s
Count of elements : 32
Stream size : 1.22 KiB (0%)
Title : Castilian [Forced]
Language : Spanish
Default : No
Forced : Yes

Text #3
ID : 5
Format : UTF-8
Codec ID : S_TEXT/UTF8
Codec ID/Info : UTF-8 Plain Text
Duration : 2 h 18 min
Bit rate : 30 b/s
Count of elements : 893
Stream size : 30.5 KiB (0%)
Title : Castilian [Full]
Language : Spanish
Default : No
Forced : No

Text #4
ID : 6
Format : UTF-8
Codec ID : S_TEXT/UTF8
Codec ID/Info : UTF-8 Plain Text
Duration : 2 h 14 min
Bit rate : 0 b/s
Count of elements : 22
Stream size : 934 Bytes (0%)
Title : Spanish [Forced]
Language : Spanish
Default : No
Forced : No

Text #5
ID : 7
Format : UTF-8
Codec ID : S_TEXT/UTF8
Codec ID/Info : UTF-8 Plain Text
Duration : 2 h 18 min
Bit rate : 28 b/s
Count of elements : 846
Stream size : 28.5 KiB (0%)
Title : Spanish [Full]
Language : Spanish
Default : No
Forced : No

Text #6
ID : 8
Format : UTF-8
Codec ID : S_TEXT/UTF8
Codec ID/Info : UTF-8 Plain Text
Duration : 2 h 14 min
Bit rate : 0 b/s
Count of elements : 22
Stream size : 891 Bytes (0%)
Title : French [Forced]
Language : French
Default : No
Forced : No

Text #7
ID : 9
Format : UTF-8
Codec ID : S_TEXT/UTF8
Codec ID/Info : UTF-8 Plain Text
Duration : 2 h 18 min
Bit rate : 28 b/s
Count of elements : 837
Stream size : 28.5 KiB (0%)
Title : French [Full]
Language : French
Default : No
Forced : No

Text #8
ID : 10
Format : UTF-8
Codec ID : S_TEXT/UTF8
Codec ID/Info : UTF-8 Plain Text
Duration : 2 h 14 min
Bit rate : 0 b/s
Count of elements : 22
Stream size : 846 Bytes (0%)
Title : German [Forced]
Language : German
Default : No
Forced : No

Text #9
ID : 11
Format : UTF-8
Codec ID : S_TEXT/UTF8
Codec ID/Info : UTF-8 Plain Text
Duration : 2 h 18 min
Bit rate : 28 b/s
Count of elements : 837
Stream size : 28.6 KiB (0%)
Title : German [Full]
Language : German
Default : No
Forced : No

Text #10
ID : 12
Format : UTF-8
Codec ID : S_TEXT/UTF8
Codec ID/Info : UTF-8 Plain Text
Duration : 2 h 14 min
Bit rate : 0 b/s
Count of elements : 22
Stream size : 877 Bytes (0%)
Title : Italian [Forced]
Language : Italian
Default : No
Forced : No

Text #11
ID : 13
Format : UTF-8
Codec ID : S_TEXT/UTF8
Codec ID/Info : UTF-8 Plain Text
Duration : 2 h 18 min
Bit rate : 27 b/s
Count of elements : 845
Stream size : 28.1 KiB (0%)
Title : Italian [Full]
Language : Italian
Default : No
Forced : No

Text #12
ID : 14
Format : UTF-8
Codec ID : S_TEXT/UTF8
Codec ID/Info : UTF-8 Plain Text
Duration : 2 h 18 min
Bit rate : 28 b/s
Count of elements : 846
Stream size : 28.8 KiB (0%)
Title : Portuguese [Full]
Language : Portuguese
Default : No
Forced : No

Text #13
ID : 15
Format : UTF-8
Codec ID : S_TEXT/UTF8
Codec ID/Info : UTF-8 Plain Text
Duration : 2 h 14 min
Bit rate : 0 b/s
Count of elements : 22
Stream size : 888 Bytes (0%)
Title : Brazilian Portuguese [Forced]
Language : Portuguese
Default : No
Forced : No

Text #14
ID : 16
Format : UTF-8
Codec ID : S_TEXT/UTF8
Codec ID/Info : UTF-8 Plain Text
Duration : 2 h 18 min
Bit rate : 27 b/s
Count of elements : 845
Stream size : 27.8 KiB (0%)
Title : Brazilian Portuguese [Full]
Language : Portuguese
Default : No
Forced : No

Text #15
ID : 17
Format : UTF-8
Codec ID : S_TEXT/UTF8
Codec ID/Info : UTF-8 Plain Text
Duration : 1 h 57 min
Bit rate : 0 b/s
Count of elements : 4
Stream size : 164 Bytes (0%)
Title : Polish [Forced]
Language : Polish
Default : No
Forced : No

Text #16
ID : 18
Format : UTF-8
Codec ID : S_TEXT/UTF8
Codec ID/Info : UTF-8 Plain Text
Duration : 2 h 18 min
Bit rate : 26 b/s
Count of elements : 841
Stream size : 26.6 KiB (0%)
Title : Polish [Full]
Language : Polish
Default : No
Forced : No

Text #17
ID : 19
Format : UTF-8
Codec ID : S_TEXT/UTF8
Codec ID/Info : UTF-8 Plain Text
Duration : 2 h 14 min
Bit rate : 0 b/s
Count of elements : 22
Stream size : 846 Bytes (0%)
Title : Turkish [Forced]
Language : Turkish
Default : No
Forced : No

Text #18
ID : 20
Format : UTF-8
Codec ID : S_TEXT/UTF8
Codec ID/Info : UTF-8 Plain Text
Duration : 2 h 18 min
Bit rate : 27 b/s
Count of elements : 846
Stream size : 27.7 KiB (0%)
Title : Turkish [Full]
Language : Turkish
Default : No
Forced : No

Text #19
ID : 21
Format : UTF-8
Codec ID : S_TEXT/UTF8
Codec ID/Info : UTF-8 Plain Text
Duration : 2 h 18 min
Bit rate : 27 b/s
Count of elements : 846
Stream size : 27.6 KiB (0%)
Title : Swedish [Full]
Language : Swedish
Default : No
Forced : No

Text #20
ID : 22
Format : UTF-8
Codec ID : S_TEXT/UTF8
Codec ID/Info : UTF-8 Plain Text
Duration : 2 h 18 min
Bit rate : 27 b/s
Count of elements : 839
Stream size : 27.4 KiB (0%)
Title : Danish [Full]
Language : Danish
Default : No
Forced : No

Text #21
ID : 23
Format : UTF-8
Codec ID : S_TEXT/UTF8
Codec ID/Info : UTF-8 Plain Text
Duration : 2 h 18 min
Bit rate : 24 b/s
Count of elements : 842
Stream size : 25.2 KiB (0%)
Title : Finnish [Full]
Language : Finnish
Default : No
Forced : No

Text #22
ID : 24
Format : UTF-8
Codec ID : S_TEXT/UTF8
Codec ID/Info : UTF-8 Plain Text
Duration : 2 h 18 min
Bit rate : 24 b/s
Count of elements : 836
Stream size : 25.0 KiB (0%)
Title : Dutch [Full]
Language : Dutch
Default : No
Forced : No

Text #23
ID : 25
Format : UTF-8
Codec ID : S_TEXT/UTF8
Codec ID/Info : UTF-8 Plain Text
Duration : 2 h 18 min
Bit rate : 25 b/s
Count of elements : 838
Stream size : 26.0 KiB (0%)
Title : Norwegian [Full]
Language : Norwegian
Default : No
Forced : No

Text #24
ID : 26
Format : UTF-8
Codec ID : S_TEXT/UTF8
Codec ID/Info : UTF-8 Plain Text
Duration : 2 h 18 min
Bit rate : 43 b/s
Count of elements : 845
Stream size : 44.4 KiB (0%)
Title : Russian [Full]
Language : Russian
Default : No
Forced : No

Text #25
ID : 27
Format : UTF-8
Codec ID : S_TEXT/UTF8
Codec ID/Info : UTF-8 Plain Text
Duration : 2 h 18 min
Bit rate : 46 b/s
Count of elements : 839
Stream size : 47.6 KiB (0%)
Title : Greek [Full]
Language : Greek
Default : No
Forced : No

Text #26
ID : 28
Format : UTF-8
Codec ID : S_TEXT/UTF8
Codec ID/Info : UTF-8 Plain Text
Duration : 2 h 18 min
Bit rate : 34 b/s
Count of elements : 845
Stream size : 35.1 KiB (0%)
Title : Hebrew [Full]
Language : Hebrew
Default : No
Forced : No

Text #27
ID : 29
Format : UTF-8
Codec ID : S_TEXT/UTF8
Codec ID/Info : UTF-8 Plain Text
Duration : 2 h 18 min
Bit rate : 37 b/s
Count of elements : 844
Stream size : 38.4 KiB (0%)
Title : Arabic [Full]
Language : Arabic
Default : No
Forced : No

Text #28
ID : 30
Format : UTF-8
Codec ID : S_TEXT/UTF8
Codec ID/Info : UTF-8 Plain Text
Duration : 2 h 18 min
Bit rate : 32 b/s
Count of elements : 844
Stream size : 32.7 KiB (0%)
Title : Romanian [Full]
Language : Romanian
Default : No
Forced : No

Text #29
ID : 31
Format : UTF-8
Codec ID : S_TEXT/UTF8
Codec ID/Info : UTF-8 Plain Text
Duration : 2 h 18 min
Bit rate : 29 b/s
Count of elements : 856
Stream size : 30.1 KiB (0%)
Title : Indonesian [Full]
Language : Indonesian
Default : No
Forced : No

Text #30
ID : 32
Format : UTF-8
Codec ID : S_TEXT/UTF8
Codec ID/Info : UTF-8 Plain Text
Duration : 2 h 18 min
Bit rate : 40 b/s
Count of elements : 843
Stream size : 41.3 KiB (0%)
Title : Vietnamese [Full]
Language : Vietnamese
Default : No
Forced : No

Text #31
ID : 33
Format : UTF-8
Codec ID : S_TEXT/UTF8
Codec ID/Info : UTF-8 Plain Text
Duration : 2 h 18 min
Bit rate : 73 b/s
Count of elements : 844
Stream size : 74.4 KiB (0%)
Title : Thai [Full]
Language : Thai
Default : No
Forced : No

Text #32
ID : 34
Format : UTF-8
Codec ID : S_TEXT/UTF8
Codec ID/Info : UTF-8 Plain Text
Duration : 2 h 18 min
Bit rate : 42 b/s
Count of elements : 972
Stream size : 43.4 KiB (0%)
Title : Korean [SDH]
Language : Korean
Default : No
Forced : No

Text #33
ID : 35
Format : UTF-8
Codec ID : S_TEXT/UTF8
Codec ID/Info : UTF-8 Plain Text
Duration : 2 h 18 min
Bit rate : 28 b/s
Count of elements : 845
Stream size : 29.0 KiB (0%)
Title : Chinese (Simplified) [Full]
Language : Chinese
Default : No
Forced : No

Text #34
ID : 36
Format : UTF-8
Codec ID : S_TEXT/UTF8
Codec ID/Info : UTF-8 Plain Text
Duration : 2 h 18 min
Bit rate : 27 b/s
Count of elements : 844
Stream size : 28.2 KiB (0%)
Title : Chinese (Traditional) [Full]
Language : Chinese
Default : No
Forced : No

Text #35
ID : 37
Format : UTF-8
Codec ID : S_TEXT/UTF8
Codec ID/Info : UTF-8 Plain Text
Duration : 2 h 18 min
Bit rate : 1 b/s
Count of elements : 35
Stream size : 1.28 KiB (0%)
Title : Japanese [Forced]
Language : Japanese
Default : No
Forced : No

Text #36
ID : 38
Format : UTF-8
Codec ID : S_TEXT/UTF8
Codec ID/Info : UTF-8 Plain Text
Duration : 2 h 18 min
Bit rate : 31 b/s
Count of elements : 945
Stream size : 31.5 KiB (0%)
Title : Japanese [Full]
Language : Japanese
Default : No
Forced : No
b15e479a03e1a.png bc1b8db343b71.png
5940d151da195.png


游客,如果您要查看本帖隐藏内容请回复
发表于 2020-2-20 10:23:12 | 显示全部楼层
楼主辛苦了,谢谢首发之家!!
发表于 2020-2-26 18:33:58 | 显示全部楼层
楼主辛苦了,感谢首发之荚丁!
发表于 2020-2-26 22:48:10 | 显示全部楼层
楼主辛苦了,谢谢首发之家!!
发表于 2020-2-28 00:48:39 | 显示全部楼层
楼主辛苦了,感谢首发之荚丁!
您需要登录后才可以回帖 登录 | 立即注册 用百度帐号登录

本版积分规则

手机版

轻松易点,迅速到家!

官方微信

扫描二维码,即刻与小易亲密互动,还有劲爆优惠等你来拿!

订阅QQ邮件

第一手促销资讯,尊享邮件特惠商品,优惠不错过!

广告招商QQ:2295479776|小黑屋|手机版|首发之家论坛 |网站地图

GMT+8, 2020-3-28 23:36 , Processed in 0.133105 second(s), 24 queries , XCache On.

Powered by Discuz! X3.4

@ 2001-2013 Comsenz Inc.

快速回复 返回顶部 返回列表