立即注册
 找回密码
 立即注册

扫一扫,访问微社区

用百度帐号登录

只需两步,快速登录

查看: 248|回复: 3

[恐怖] 暗夜逐尸 Chasing.Darkness.2007.1080p.WEBRip.x264-iNTENSO 7.56GB

[复制链接]
发表于 2020-2-17 12:59:26 | 显示全部楼层 |阅读模式
7c696f04c2f51.png
◎译  名 暗夜逐尸
◎片  名 Chasing Darkness
◎年  代 2007
◎产  地 美国
◎类  别 动作 / 恐怖
◎语  言 英语
◎上映日期 2007
◎IMDb评分 2.5/10 from 36 users
◎IMDb链接 https://www.imdb.com/title/tt1557181
◎豆瓣评分 0/10 from 0 users
◎豆瓣链接 https://movie.douban.com/subject/5159788/
◎片  长 USA: 104 分钟
◎导  演 Jason Hull
◎编  剧 Jason Hull

◎标  签 血腥 | 恐怖

◎简  介

  暂无相关剧情介绍
Video
ID : 1
Format : AVC
Format/Info : Advanced Video Codec
Format profile : High@L4.1
Format settings : CABAC / 4 Ref Frames
Format settings, CABAC : Yes
Format settings, Reference frames : 4 frames
Codec ID : V_MPEG4/ISO/AVC
Duration : 1 h 44 min
Bit rate : 10.3 Mb/s
Width : 1 920 pixels
Height : 1 080 pixels
Display aspect ratio : 16:9
Frame rate mode : Constant
Frame rate : 29.970 (30000/1001) FPS
Color space : YUV
Chroma subsampling : 4:2:0
Bit depth : 8 bits
Scan type : Progressive
Bits/(Pixel*Frame) : 0.165
Stream size : 7.47 GiB (99%)
Writing library : x264 core 155 r2901 7d0ff22
Encoding settings : cabac=1 / ref=4 / deblock=1:-3:-3 / analyse=0x3:0x133 / me=umh / subme=11 / psy=1 / psy_rd=1.05:0.15 / mixed_ref=1 / me_range=16 / chroma_me=1 / trellis=2 / 8x8dct=1 / cqm=0 / deadzone=21,11 / fast_pskip=0 / chroma_qp_offset=-3 / threads=12 / lookahead_threads=1 / sliced_threads=0 / nr=0 / decimate=1 / interlaced=0 / bluray_compat=0 / constrained_intra=0 / bframes=3 / b_pyramid=2 / b_adapt=2 / b_bias=0 / direct=3 / weightb=1 / open_gop=0 / weightp=2 / keyint=250 / keyint_min=24 / scenecut=40 / intra_refresh=0 / rc_lookahead=50 / rc=crf / mbtree=1 / crf=17.0 / qcomp=0.60 / qpmin=0 / qpmax=69 / qpstep=4 / ip_ratio=1.40 / aq=3:0.65
Language : English
Default : Yes
Forced : No

Audio
ID : 2
Format : AAC LC
Format/Info : Advanced Audio Codec Low Complexity
Codec ID : A_AAC-2
Duration : 1 h 44 min
Bit rate : 125 kb/s
Channel(s) : 2 channels
Channel layout : L R
Sampling rate : 48.0 kHz
Frame rate : 46.875 FPS (1024 SPF)
Compression mode : Lossy
Stream size : 93.4 MiB (1%)
Language : English
Default : Yes
Forced : No

Menu
00:00:00.054 : en:00:00:00.054


dfb9418a9c66a.png


游客,如果您要查看本帖隐藏内容请回复
发表于 2020-2-17 14:27:12 | 显示全部楼层
首发之家不能没有像楼主这样的人才!
发表于 2020-2-17 15:06:43 来自手机 | 显示全部楼层
可以可以,感谢楼主
发表于 2020-2-17 21:58:47 | 显示全部楼层
暗夜逐尸.Chasing Darkness.2007.美国.动作、恐怖
您需要登录后才可以回帖 登录 | 立即注册 用百度帐号登录

本版积分规则

手机版

轻松易点,迅速到家!

官方微信

扫描二维码,即刻与小易亲密互动,还有劲爆优惠等你来拿!

订阅QQ邮件

第一手促销资讯,尊享邮件特惠商品,优惠不错过!

广告招商QQ:2295479776|小黑屋|手机版|首发之家论坛 |网站地图

GMT+8, 2020-3-28 21:43 , Processed in 0.120542 second(s), 24 queries , XCache On.

Powered by Discuz! X3.4

@ 2001-2013 Comsenz Inc.

快速回复 返回顶部 返回列表