立即注册
 找回密码
 立即注册

扫一扫,访问微社区

用百度帐号登录

只需两步,快速登录

查看: 219|回复: 3

[剧情] 迷情佛罗伦萨 Lost.in.Florence.2017.1080p.WEB-DL.DD5.1.H264-FGT 3.80GB

[复制链接]
发表于 2020-2-15 10:35:18 | 显示全部楼层 |阅读模式

帖子完整标题:迷情佛罗伦萨 Lost.in.Florence.2017.1080P.WEB-DL.DD5.1.H264-FGT 3.80GB


6da94277558f5.png
◎译  名 迷情佛罗伦萨 / The Tourist
◎片  名 Lost in Florence
◎年  代 2017
◎产  地 美国
◎类  别 剧情 / 爱情 / 冒险
◎语  言 英语
◎上映日期 2017-01-27(美国)
◎IMDb评分 5.1/10 from 695 users
◎IMDb链接 https://www.imdb.com/title/tt3809276
◎豆瓣评分 5.6/10 from 347 users
电影首发 https://movie.douban.com/subject/25920094/
◎片  长 97分钟
◎导  演 Evan Oppenheimer
◎编  剧 Evan Oppenheimer
◎主  演 布雷特·道顿 Brett Dalton
      斯坦娜·卡蒂克 Stana Katic
      亚历桑德拉·马斯特罗兰迪 Alessandra Mastronardi
      艾米丽·阿塔克 Emily Atack
      马洛可·伯尼尼 Marco Bonini
      阿莱桑德罗·普莱齐奥西 Alessandro Preziosi
      Niccolo Cancellieri
      罗伯特·阿拉马约 Robert Aramayo
      Abbey Blake
      Chris Walsh Jnr
      Giusi Merli


◎标  签 佛罗伦萨 | 爱情 | 意大利 | 美国 | 意大利风光 | 2017 | 迷情佛罗伦萨 | 剧情

◎简  介

  一名情场失意的美国人在佛罗伦萨邂逅了一项危险的运动和一名神秘的意大利女子。
Video
ID : 1
Format : AVC
Format/Info : Advanced Video Codec
Format profile : High@L4
Format settings : CABAC / 4 Ref Frames
Format settings, CABAC : Yes
Format settings, Reference frames : 4 frames
Codec ID : V_MPEG4/ISO/AVC
Duration : 1 h 38 min
Bit rate : 5 041 kb/s
Width : 1 916 pixels
Height : 1 076 pixels
Display aspect ratio : 16:9
Frame rate mode : Constant
Frame rate : 24.000 FPS
Color space : YUV
Chroma subsampling : 4:2:0
Bit depth : 8 bits
Scan type : Progressive
Bits/(Pixel*Frame) : 0.102
Stream size : 3.46 GiB (91%)
Title : Lost.in.Florence.2017.1080p.WEB-DL.DD5.1.H264-FGT
Language : English
Default : Yes
Forced : No
Color range : Limited
Color primaries : BT.709
Transfer characteristics : BT.709
Matrix coefficients : BT.709

Audio
ID : 2
Format : AC-3
Format/Info : Audio Coding 3
Commercial name : Dolby Digital
Codec ID : A_AC3
Duration : 1 h 38 min
Bit rate mode : Constant
Bit rate : 384 kb/s
Channel(s) : 6 channels
Channel layout : L R C LFE Ls Rs
Sampling rate : 48.0 kHz
Frame rate : 31.250 FPS (1536 SPF)
Bit depth : 16 bits
Compression mode : Lossy
Stream size : 270 MiB (7%)
Title : Lost.in.Florence.2017.1080p.WEB-DL.DD5.1.H264-FGT
Language : English
Service kind : Complete Main
Default : Yes
Forced : No

Text
ID : 3
Format : UTF-8
Codec ID : S_TEXT/UTF8
Codec ID/Info : UTF-8 Plain Text
Language : English
Default : Yes
Forced : No

Menu
00:00:00.000 : en:1
00:13:49.000 : en:2
00:25:09.000 : en:3
00:40:12.000 : en:4
00:51:36.000 : en:5
01:09:04.000 : en:6
01:21:39.000 : en:7

54ff906a78227.png
f8be4450298a5.png
1fe6511d55bf4.png

游客,如果您要查看本帖隐藏内容请回复
发表于 2020-2-15 11:37:07 | 显示全部楼层
首发之家不能没有像楼主这样的人才!
发表于 2020-2-15 20:34:13 | 显示全部楼层
楼主辛苦了,谢谢首发之家!!
发表于 2020-2-16 21:34:02 | 显示全部楼层
楼主辛苦了,谢谢首发之家!!
您需要登录后才可以回帖 登录 | 立即注册 用百度帐号登录

本版积分规则

手机版

轻松易点,迅速到家!

官方微信

扫描二维码,即刻与小易亲密互动,还有劲爆优惠等你来拿!

订阅QQ邮件

第一手促销资讯,尊享邮件特惠商品,优惠不错过!

广告招商QQ:2295479776|小黑屋|手机版|首发之家论坛 |网站地图

GMT+8, 2020-9-26 06:16 , Processed in 0.101007 second(s), 24 queries , XCache On.

Powered by Discuz! X3.4

@ 2001-2013 Comsenz Inc.

快速回复 返回顶部 返回列表