立即注册
 找回密码
 立即注册

扫一扫,访问微社区

用百度帐号登录

只需两步,快速登录

查看: 176|回复: 2

[剧情] 警网重重/挥命今宵 Crime.Wave.1953.1080p.WEBRip.x264-RARBG 1.41GB

[复制链接]
发表于 2020-2-15 10:26:04 | 显示全部楼层 |阅读模式
71518252213cc.png
◎译  名 警网重重 / 挥命今宵
◎片  名 Crime Wave
◎年  代 1954
◎产  地 美国
◎类  别 剧情 / 犯罪 / 黑色电影
◎语  言 英语
◎上映日期 1954-02-06
◎IMDb评分 7.3/10 from 2917 users
◎IMDb链接 https://www.imdb.com/title/tt0046878
◎豆瓣评分 7.3/10 from 393 users
◎豆瓣链接 https://movie.douban.com/subject/1304487/
◎片  长 73 分钟
◎导  演 安德尔·迪·托斯 André De Toth
◎编  剧 Bernard Gordon / 克兰·威尔伯 Crane Wilbur / John Hawkins
◎主  演 Sterling Hayden
      Gene Nelson
      Phyllis Kirk


◎标  签 美国 | 黑色电影 | Film-Noir | 犯罪 | 美国电影 | 1950s | 黑色 | 黑白

◎简  介

  暂无相关剧情介绍
Video
ID : 1
Format : AVC
Format/Info : Advanced Video Codec
Format profile : High@L4.1
Format settings : CABAC / 4 Ref Frames
Format settings, CABAC : Yes
Format settings, Reference frames : 4 frames
Codec ID : avc1
Codec ID/Info : Advanced Video Coding
Duration : 1 h 13 min
Bit rate : 2 500 kb/s
Width : 1 440 pixels
Height : 1 080 pixels
Display aspect ratio : 4:3
Frame rate mode : Constant
Frame rate : 23.976 (23976/1000) FPS
Color space : YUV
Chroma subsampling : 4:2:0
Bit depth : 8 bits
Scan type : Progressive
Bits/(Pixel*Frame) : 0.067
Stream size : 1.29 GiB (92%)
Writing library : x264 core 152 r2851M ba24899
Encoding settings : cabac=1 / ref=4 / deblock=1:-1:-1 / analyse=0x3:0x113 / me=umh / subme=9 / psy=1 / psy_rd=1.00:0.15 / mixed_ref=1 / me_range=24 / chroma_me=1 / trellis=2 / 8x8dct=1 / cqm=0 / deadzone=21,11 / fast_pskip=1 / chroma_qp_offset=-3 / threads=16 / lookahead_threads=4 / sliced_threads=0 / nr=0 / decimate=1 / interlaced=0 / bluray_compat=0 / constrained_intra=0 / bframes=3 / b_pyramid=2 / b_adapt=2 / b_bias=0 / direct=3 / weightb=1 / open_gop=0 / weightp=2 / keyint=250 / keyint_min=25 / scenecut=40 / intra_refresh=0 / rc_lookahead=50 / rc=2pass / mbtree=1 / bitrate=2500 / ratetol=1.0 / qcomp=0.60 / qpmin=0 / qpmax=69 / qpstep=4 / cplxblur=20.0 / qblur=0.5 / vbv_maxrate=31250 / vbv_bufsize=31250 / nal_hrd=none / filler=0 / ip_ratio=1.40 / aq=3:1.00
Encoded date : UTC 2020-02-13 17:15:51
Tagged date : UTC 2020-02-13 17:15:51
Codec configuration box : avcC

Audio
ID : 2
Format : AAC LC
Format/Info : Advanced Audio Codec Low Complexity
Codec ID : mp4a-40-2
Duration : 1 h 13 min
Duration_LastFrame : -11 ms
Bit rate mode : Constant
Bit rate : 224 kb/s
Channel(s) : 2 channels
Channel layout : L R
Sampling rate : 48.0 kHz
Frame rate : 46.875 FPS (1024 SPF)
Compression mode : Lossy
Stream size : 118 MiB (8%)
Language : English
Default : Yes
Alternate group : 1
Encoded date : UTC 2020-02-13 17:15:51
Tagged date : UTC 2020-02-13 17:15:51

382893412aae7.png
40d0c6e14e424.png
09aed357584ea.png
游客,如果您要查看本帖隐藏内容请回复
发表于 2020-2-15 18:10:53 | 显示全部楼层
楼主辛苦了,谢谢首发之家!!
发表于 2020-2-15 20:35:26 | 显示全部楼层
楼主辛苦了,谢谢首发之家!!
您需要登录后才可以回帖 登录 | 立即注册 用百度帐号登录

本版积分规则

手机版

轻松易点,迅速到家!

官方微信

扫描二维码,即刻与小易亲密互动,还有劲爆优惠等你来拿!

订阅QQ邮件

第一手促销资讯,尊享邮件特惠商品,优惠不错过!

广告招商QQ:2295479776|小黑屋|手机版|首发之家论坛 |网站地图

GMT+8, 2020-9-26 07:43 , Processed in 0.096418 second(s), 25 queries , XCache On.

Powered by Discuz! X3.4

@ 2001-2013 Comsenz Inc.

快速回复 返回顶部 返回列表