立即注册
 找回密码
 立即注册

扫一扫,访问微社区

用百度帐号登录

只需两步,快速登录

查看: 251|回复: 3

[剧情] 后会有期 Come.As.You.Are.2019.1080p.WEB-DL.DD5.1.H264-FGT 3.73GB

[复制链接]
发表于 2020-2-15 10:24:04 | 显示全部楼层 |阅读模式
1a1254dfbe008.png
◎译  名 后会有期
◎片  名 Come As You Are
◎年  代 2019
◎产  地 美国
◎IMDb评分 8.2/10 from 81 users
◎IMDb链接 https://www.imdb.com/title/tt6722726
◎豆瓣评分 0/10 from 0 users
电影首发 https://movie.douban.com/subject/30434902/
◎导  演 Richard Wong

◎简  介

  Three young men with disabilities hit the road with a jaded nurse driver to a brothel in Montreal catering to people with special needs. Remake of the acclaimed Belgian film 'Hasta La Vista'.
Video
ID : 1
Format : AVC
Format/Info : Advanced Video Codec
Format profile : High@L4
Format settings : CABAC / 5 Ref Frames
Format settings, CABAC : Yes
Format settings, Reference frames : 5 frames
Format settings, GOP : N=1
Codec ID : V_MPEG4/ISO/AVC
Duration : 1 h 46 min
Bit rate : 4 605 kb/s
Width : 1 912 pixels
Height : 804 pixels
Display aspect ratio : 2.40:1
Frame rate mode : Constant
Frame rate : 23.976 FPS
Color space : YUV
Chroma subsampling : 4:2:0
Bit depth : 8 bits
Scan type : Progressive
Bits/(Pixel*Frame) : 0.125
Stream size : 3.44 GiB (92%)
Title : Come.As.You.Are.2019.1080P.WEB-DL.DD5.1.H264-FGT
Language : English
Default : Yes
Forced : No
Color range : Limited
Color primaries : BT.709
Transfer characteristics : BT.709
Matrix coefficients : BT.709

Audio
ID : 2
Format : AC-3
Format/Info : Audio Coding 3
Commercial name : Dolby Digital
Codec ID : A_AC3
Duration : 1 h 46 min
Bit rate mode : Constant
Bit rate : 384 kb/s
Channel(s) : 6 channels
Channel layout : L R C LFE Ls Rs
Sampling rate : 48.0 kHz
Frame rate : 31.250 FPS (1536 SPF)
Bit depth : 16 bits
Compression mode : Lossy
Stream size : 294 MiB (8%)
Title : Come.As.You.Are.2019.1080p.WEB-DL.DD5.1.H264-FGT
Language : English
Service kind : Complete Main
Default : Yes
Forced : No

Text
ID : 3
Format : UTF-8
Codec ID : S_TEXT/UTF8
Codec ID/Info : UTF-8 Plain Text
Duration : 1 h 43 min
Bit rate : 104 b/s
Count of elements : 1489
Stream size : 78.8 KiB (0%)
Language : English
Default : Yes
Forced : No

Menu
00:00:00.000 : en:Chapter 1
00:08:50.780 : en:Chapter 2
00:21:19.945 : en:Chapter 3
00:31:34.516 : en:Chapter 4
00:40:46.191 : en:Chapter 5
00:51:20.866 : en:Chapter 6
01:01:41.528 : en:Chapter 7
01:10:01.735 : en:Chapter 8
01:20:03.378 : en:Chapter 9
01:30:29.711 : en:Chapter 10
01:42:42.944 : en:Chapter 11

846e173ff9767.png
095b74fa093a6.png
da0be5760b451.png
游客,如果您要查看本帖隐藏内容请回复
发表于 2020-2-15 20:35:52 | 显示全部楼层
楼主辛苦了,谢谢首发之家!!
您需要登录后才可以回帖 登录 | 立即注册 用百度帐号登录

本版积分规则

手机版

轻松易点,迅速到家!

官方微信

扫描二维码,即刻与小易亲密互动,还有劲爆优惠等你来拿!

订阅QQ邮件

第一手促销资讯,尊享邮件特惠商品,优惠不错过!

广告招商QQ:2295479776|小黑屋|手机版|首发之家论坛 |网站地图

GMT+8, 2020-9-30 11:48 , Processed in 0.090564 second(s), 24 queries , XCache On.

Powered by Discuz! X3.4

@ 2001-2013 Comsenz Inc.

快速回复 返回顶部 返回列表