立即注册
 找回密码
 立即注册

扫一扫,访问微社区

用百度帐号登录

只需两步,快速登录

查看: 53|回复: 2

[喜剧] 奥运梦 Olympic.Dreams.2019.1080p.WEB-DL.DD5.1.H264-FGT 3.20GB

[复制链接]
发表于 前天 10:23 | 显示全部楼层 |阅读模式
41010da42716e.png
◎译  名 奥运梦
◎片  名 Olympic Dreams
◎年  代 2019
◎产  地 美国 / 韩国
◎类  别 喜剧 / 爱情 / 运动
◎语  言 英语
◎上映日期 2019-03-10(西南偏南电影节)
◎IMDb评分 7.4/10 from 51 users
◎IMDb链接 https://www.imdb.com/title/tt8964214
◎豆瓣评分 0/10 from 0 users
◎豆瓣链接 https://movie.douban.com/subject/30486913/
◎片  长 85分钟
◎导  演 Jeremy Teicher
◎编  剧 Jeremy Teicher / 尼克·克罗尔 Nick Kroll / Alexi Pappas
◎主  演 格斯·肯沃西 Gus Kenworthy
      尼克·克罗尔 Nick Kroll
      Alexi Pappas
      Morgan Schild


◎标  签 运动 | 喜剧 | Jeremy_Teicher

◎简  介

  In the Olympic Athlete Village, a young cross-country skier bonds with a volunteer doctor after her competition ends. Starring Nick Kroll and Alexi Pappas. Filmed on location in the actual Olympic Village at the 2018 PyeongChang Winter Olympics with three people comprising the entire cast and crew: Jeremy Teicher, Nick Kroll, and Alexi Pappas. Real Olympic athletes, including Jamie Anderson and Gus Kenworthy, also make their way into the film as additional characters.
Video
ID : 1
Format : AVC
Format/Info : Advanced Video Codec
Format profile : High@L4
Format settings : CABAC / 4 Ref Frames
Format settings, CABAC : Yes
Format settings, Reference frames : 4 frames
Codec ID : V_MPEG4/ISO/AVC
Duration : 1 h 22 min
Bit rate : 5 176 kb/s
Width : 1 920 pixels
Height : 1 030 pixels
Display aspect ratio : 1.85:1
Frame rate mode : Constant
Frame rate : 23.976 (24000/1001) FPS
Color space : YUV
Chroma subsampling : 4:2:0
Bit depth : 8 bits
Scan type : Progressive
Bits/(Pixel*Frame) : 0.109
Stream size : 2.97 GiB (93%)
Title : Olympic.Dreams.2019.1080P.WEB-DL.DD5.1.H264-FGT
Language : English
Default : Yes
Forced : No
Color range : Limited
Color primaries : BT.709
Transfer characteristics : BT.709
Matrix coefficients : BT.709

Audio
ID : 2
Format : AC-3
Format/Info : Audio Coding 3
Commercial name : Dolby Digital
Codec ID : A_AC3
Duration : 1 h 22 min
Bit rate mode : Constant
Bit rate : 384 kb/s
Channel(s) : 6 channels
Channel layout : L R C LFE Ls Rs
Sampling rate : 48.0 kHz
Frame rate : 31.250 FPS (1536 SPF)
Bit depth : 16 bits
Compression mode : Lossy
Stream size : 226 MiB (7%)
Title : Olympic.Dreams.2019.1080p.WEB-DL.DD5.1.H264-FGT
Language : English
Service kind : Complete Main
Default : Yes
Forced : No

Text
ID : 3
Format : UTF-8
Codec ID : S_TEXT/UTF8
Codec ID/Info : UTF-8 Plain Text
Duration : 1 h 20 min
Bit rate : 96 b/s
Count of elements : 1337
Stream size : 57.2 KiB (0%)
Language : English
Default : Yes
Forced : No

Menu
00:00:00.000 : en:1
00:11:27.771 : en:2
00:20:38.947 : en:3
00:31:10.870 : en:4
00:44:24.787 : en:5
00:55:01.298 : en:6
01:08:07.500 : en:7
01:19:39.984 : en:8
cc0ee3aa65650.png
3187ef01d1480.png
949340618283c.png

游客,如果您要查看本帖隐藏内容请回复
发表于 前天 20:36 | 显示全部楼层
楼主辛苦了,谢谢首发之家!!
您需要登录后才可以回帖 登录 | 立即注册 用百度帐号登录

本版积分规则

手机版

轻松易点,迅速到家!

官方微信

扫描二维码,即刻与小易亲密互动,还有劲爆优惠等你来拿!

订阅QQ邮件

第一手促销资讯,尊享邮件特惠商品,优惠不错过!

广告招商QQ:2295479776|小黑屋|手机版|首发之家论坛 |网站地图

GMT+8, 2020-2-17 18:53 , Processed in 0.090113 second(s), 24 queries , XCache On.

Powered by Discuz! X3.4

@ 2001-2013 Comsenz Inc.

快速回复 返回顶部 返回列表