立即注册
 找回密码
 立即注册

扫一扫,访问微社区

用百度帐号登录

只需两步,快速登录

查看: 4031|回复: 57

[喜剧] 间谍干涉/间谍本色 Spy.Intervention.2020.1080p.WEB-DL.DD5.1.H264-FGT 3.60GB

  [复制链接]
发表于 2020-2-15 10:21:36 | 显示全部楼层 |阅读模式
d327928a59f37.png
◎译  名 间谍干涉 / 间谍本色
◎片  名 Spy Intervention
◎年  代 2020
◎产  地 英国
◎类  别 喜剧 / 动作
◎语  言 英语
◎上映日期 2020(英国)
◎IMDb链接 https://www.imdb.com/title/tt7369550
◎豆瓣评分 0/10 from 0 users
电影首发 https://movie.douban.com/subject/30140658/
◎导  演 Drew Mylrea
◎主  演 波比·迪瓦伊 Poppy Delevingne
      戴夫·谢里登 Dave Sheridan
      德鲁·凡·阿克尔 Drew Van Acker


◎简  介

  一个超级间谍突然遇到了自己真爱的女人。为了真爱,他放弃了自己的职业和冒险的生活。1年之后,他完全颓废了。他的老同行计划让老同事重新找回超级间谍的感觉。
Video
ID : 1
Format : AVC
Format/Info : Advanced Video Codec
Format profile : High@L4
Format settings : CABAC / 4 Ref Frames
Format settings, CABAC : Yes
Format settings, Reference frames : 4 frames
Codec ID : V_MPEG4/ISO/AVC
Duration : 1 h 32 min
Bit rate : 5 176 kb/s
Width : 1 916 pixels
Height : 1 076 pixels
Display aspect ratio : 16:9
Frame rate mode : Constant
Frame rate : 23.976 FPS
Color space : YUV
Chroma subsampling : 4:2:0
Bit depth : 8 bits
Scan type : Progressive
Bits/(Pixel*Frame) : 0.105
Stream size : 3.35 GiB (93%)
Title : Spy.Intervention.2020.1080P.WEB-DL.DD5.1.H264-FGT
Language : English
Default : Yes
Forced : No
Color range : Limited
Color primaries : BT.709
Transfer characteristics : BT.709
Matrix coefficients : BT.709

Audio
ID : 2
Format : AC-3
Format/Info : Audio Coding 3
Commercial name : Dolby Digital
Codec ID : A_AC3
Duration : 1 h 32 min
Bit rate mode : Constant
Bit rate : 384 kb/s
Channel(s) : 6 channels
Channel layout : L R C LFE Ls Rs
Sampling rate : 48.0 kHz
Frame rate : 31.250 FPS (1536 SPF)
Bit depth : 16 bits
Compression mode : Lossy
Stream size : 254 MiB (7%)
Title : Spy.Intervention.2020.1080p.WEB-DL.DD5.1.H264-FGT
Language : English
Service kind : Complete Main
Default : Yes
Forced : No

Text
ID : 3
Format : UTF-8
Codec ID : S_TEXT/UTF8
Codec ID/Info : UTF-8 Plain Text
Duration : 1 h 31 min
Bit rate : 107 b/s
Count of elements : 1989
Stream size : 71.8 KiB (0%)
Language : English
Default : Yes
Forced : No

Menu
00:00:00.000 : en:Chapter 1
00:09:48.797 : en:Chapter 2
00:20:44.702 : en:Chapter 3
00:29:50.121 : en:Chapter 4
00:39:05.885 : en:Chapter 5
00:53:35.336 : en:Chapter 6
01:10:35.564 : en:Chapter 7
01:29:45.171 : en:Chapter 8

0e2a57f6b3d75.png 02d9bc12efcc2.png
d27545f9b021e.png

游客,如果您要查看本帖隐藏内容请回复

发表于 2020-2-15 11:28:42 | 显示全部楼层
首发之家不能没有像楼主这样的人才!
发表于 2020-2-15 11:36:29 | 显示全部楼层
首发之家不能没有像楼主这样的人才!
发表于 2020-2-15 11:47:42 | 显示全部楼层
就会规划局规划局规划局规划局国家和国际
发表于 2020-2-15 12:49:13 | 显示全部楼层
楼主辛苦了,谢谢首发之家!!
发表于 2020-2-15 13:15:20 | 显示全部楼层
楼主辛苦了,谢谢首发之家!!
发表于 2020-2-15 17:28:06 | 显示全部楼层
楼主辛苦了,谢谢首发之家!!
发表于 2020-2-15 18:11:36 | 显示全部楼层
楼主辛苦了,谢谢首发之家!!
发表于 2020-2-15 19:29:23 | 显示全部楼层
楼主辛苦了,谢谢首发之家!!
您需要登录后才可以回帖 登录 | 立即注册 用百度帐号登录

本版积分规则

手机版

轻松易点,迅速到家!

官方微信

扫描二维码,即刻与小易亲密互动,还有劲爆优惠等你来拿!

订阅QQ邮件

第一手促销资讯,尊享邮件特惠商品,优惠不错过!

广告招商QQ:2295479776|小黑屋|手机版|首发之家论坛 |网站地图

GMT+8, 2020-9-26 06:09 , Processed in 0.105191 second(s), 25 queries , XCache On.

Powered by Discuz! X3.4

@ 2001-2013 Comsenz Inc.

快速回复 返回顶部 返回列表