立即注册
 找回密码
 立即注册

扫一扫,访问微社区

用百度帐号登录

只需两步,快速登录

查看: 1007|回复: 61

[动作] 鬼影特攻:以暴制暴 6.Underground.2019.1080p.NF.WEBRip.DD5.1.x264-FGT 7.22GB

  [复制链接]
发表于 2019-12-13 22:59:12 | 显示全部楼层 |阅读模式


◎译  名 鬼影特攻:以暴制暴 / Six Underground / 六尺之下 / 地下6号 / 飞天遁地
◎片  名 6 Underground
◎年  代 2019
◎产  地 美国
◎类  别 动作 / 惊悚
◎语  言 英语
◎上映日期 2019-12-13(美国)
◎IMDb评分 8.5/10 from 31 users
◎IMDb链接 https://www.imdb.com/title/tt8106534
◎豆瓣评分 0/10 from 0 users
◎豆瓣链接 https://movie.douban.com/subject/30163500/
◎片  长 127分钟
◎导  演 迈克尔·贝 Michael Bay
◎编  剧 略特·里斯 Rhett Reese / 保罗·韦尼克 Paul Wernick
◎主  演 瑞恩·雷诺兹 Ryan Reynolds
      本·哈迪 Ben Hardy
      梅拉尼·罗兰 Mélanie Laurent
      亚德里亚·霍纳 Adria Arjona
      戴夫·弗兰科 Dave Franco
      科里·霍金斯 Corey Hawkins
      塞巴斯蒂安·罗奇 Sebastian Roché
      曼努埃尔·加西亚-鲁尔福 Manuel Garcia-Rulfo
      詹姆斯·莫瑞 James Murray
      利奥·拉兹 Lior Raz
      埃莱娜·卡多纳 Hélène Cardona
      佩曼·莫阿迪 Peyman Moadi
      尤里·科洛科利尼科夫 Yuri Kolokolnikov
      金·柯尔德 Kim Kold
      丹尼尔·阿德博伊加 Daniel Adegboyega
      詹姆斯·卡罗尔·乔丹 James Carroll Jordan
      康斯坦丁·格雷戈里 Constantine Gregory
      彼得·阿佩塞拉 Peter Arpesella
      托多尔·乔丹诺夫 Todor Jordanov
      里纳特·希什马塔林 Rinat Khismatouline
      莉迪亚·佛朗哥 Lídia Franco
      罗杰·内瓦雷斯 Roger Nevares
      Shubham Saraf
      Sitara Attaie
      Bahara Golestani


◎标  签 动作 | 瑞恩·雷诺兹 | 迈克尔·贝 | Netflix | 美国 | 犯法 | 美国片子 | 片子

◎简  介

  来自世界各地的六人,个个都是各自范畴的佼佼者。他们之所以被选中,不单是因为才能出众,还在于其怪异的志向:他们想扼杀自己的过往以转变未来。一位神秘的领袖(瑞恩·雷诺兹饰)将他们召集到一路组成了这个团队,他毕生独一的任务就是确保即使他和自己的伙伴会被遗忘,但也要让人们永远铭记他们所做的一切。

◎获奖情况

  第7届美国化装及发型设计工会奖(2020)
  电视片子/迥殊节目类最佳年月戏发型设计(提名)
  电视片子/迥殊节目类最佳特效化装(提名)
Video
ID : 1
Format : AVC
Format/Info : Advanced Video Codec
Format profile : Main@L4
Format settings : CABAC / 3 Ref Frames
Format settings, CABAC : Yes
Format settings, Reference frames : 3 frames
Codec ID : V_MPEG4/ISO/AVC
Duration : 2 h 8 min
Bit rate mode : Variable
Bit rate : 7 500 kb/s
Maximum bit rate : 11.2 Mb/s
Width : 1 920 pixels
Height : 1 080 pixels
Display aspect ratio : 16:9
Frame rate mode : Constant
Frame rate : 23.976 (24000/1001) FPS
Color space : YUV
Chroma subsampling : 4:2:0
Bit depth : 8 bits
Scan type : Progressive
Bits/(Pixel*Frame) : 0.151
Stream size : 6.63 GiB (92%)
Title : 6.Underground.2019.1080P.NF.WEBRip.DD5.1.x264-FGT
Writing library : x264 core 148 r2715 7e75228
Encoding settings : cabac=1 / ref=3 / deblock=1:0:0 / analyse=0x1:0x111 / me=umh / subme=10 / psy=1 / psy_rd=1.00:0.00 / mixed_ref=1 / me_range=24 / chroma_me=1 / trellis=2 / 8x8dct=0 / cqm=0 / deadzone=21,11 / fast_pskip=1 / chroma_qp_offset=-2 / threads=6 / lookahead_threads=1 / sliced_threads=0 / nr=0 / decimate=1 / interlaced=0 / bluray_compat=0 / stitchable=1 / constrained_intra=0 / bframes=2 / b_pyramid=0 / b_adapt=2 / b_bias=0 / direct=3 / weightb=1 / open_gop=0 / weightp=2 / keyint=250 / keyint_min=23 / scenecut=0 / intra_refresh=0 / rc_lookahead=48 / rc=2pass / mbtree=1 / bitrate=7500 / ratetol=1.0 / qcomp=0.50 / qpmin=6 / qpmax=51 / qpstep=4 / cplxblur=20.0 / qblur=0.5 / vbv_maxrate=11250 / vbv_bufsize=15000 / nal_hrd=vbr / filler=0 / ip_ratio=1.40 / aq=1:1.00
Language : English
Default : Yes
Forced : No

Audio
ID : 2
Format : AC-3
Format/Info : Audio Coding 3
Commercial name : Dolby Digital
Codec ID : A_AC3
Duration : 2 h 8 min
Bit rate mode : Constant
Bit rate : 640 kb/s
Channel(s) : 6 channels
Channel layout : L R C LFE Ls Rs
Sampling rate : 48.0 kHz
Frame rate : 31.250 FPS (1536 SPF)
Bit depth : 16 bits
Compression mode : Lossy
Stream size : 590 MiB (8%)
Title : 6.Underground.2019.1080p.NF.WEBRip.DD5.1.x264-FGT
Language : English
Service kind : Complete Main
Default : Yes
Forced : No

Text #1
ID : 3
Format : UTF-8
Codec ID : S_TEXT/UTF8
Codec ID/Info : UTF-8 Plain Text
Duration : 2 h 6 min
Bit rate : 73 b/s
Count of elements : 2192
Stream size : 68.4 KiB (0%)
Title : English
Language : English
Default : Yes
Forced : No

Text #2
ID : 4
Format : UTF-8
Codec ID : S_TEXT/UTF8
Codec ID/Info : UTF-8 Plain Text
Duration : 2 h 5 min
Bit rate : 99 b/s
Count of elements : 1754
Stream size : 91.7 KiB (0%)
Title : Arabic
Language : Arabic
Default : No
Forced : No

Text #3
ID : 5
Format : UTF-8
Codec ID : S_TEXT/UTF8
Codec ID/Info : UTF-8 Plain Text
Duration : 2 h 7 min
Bit rate : 47 b/s
Count of elements : 1696
Stream size : 44.7 KiB (0%)
Title : Czech
Language : Czech
Default : No
Forced : No

Text #4
ID : 6
Format : UTF-8
Codec ID : S_TEXT/UTF8
Codec ID/Info : UTF-8 Plain Text
Duration : 2 h 7 min
Bit rate : 49 b/s
Count of elements : 1635
Stream size : 46.6 KiB (0%)
Title : Danish
Language : Danish
Default : No
Forced : No

Text #5
ID : 7
Format : UTF-8
Codec ID : S_TEXT/UTF8
Codec ID/Info : UTF-8 Plain Text
Duration : 2 h 7 min
Bit rate : 54 b/s
Count of elements : 1646
Stream size : 51.5 KiB (0%)
Title : German
Language : German
Default : No
Forced : No

Text #6
ID : 8
Format : UTF-8
Codec ID : S_TEXT/UTF8
Codec ID/Info : UTF-8 Plain Text
Duration : 2 h 7 min
Bit rate : 86 b/s
Count of elements : 1717
Stream size : 81.0 KiB (0%)
Title : Greek
Language : Greek
Default : No
Forced : No

Text #7
ID : 9
Format : UTF-8
Codec ID : S_TEXT/UTF8
Codec ID/Info : UTF-8 Plain Text
Duration : 2 h 7 min
Bit rate : 52 b/s
Count of elements : 1715
Stream size : 49.3 KiB (0%)
Title : Spanish
Language : Spanish
Default : No
Forced : No

Text #8
ID : 10
Format : UTF-8
Codec ID : S_TEXT/UTF8
Codec ID/Info : UTF-8 Plain Text
Duration : 2 h 7 min
Bit rate : 49 b/s
Count of elements : 1725
Stream size : 46.0 KiB (0%)
Title : European Spanish
Language : Spanish
Default : No
Forced : No

Text #9
ID : 11
Format : UTF-8
Codec ID : S_TEXT/UTF8
Codec ID/Info : UTF-8 Plain Text
Duration : 2 h 7 min
Bit rate : 49 b/s
Count of elements : 1481
Stream size : 46.1 KiB (0%)
Title : Finnish
Language : Finnish
Default : No
Forced : No

Text #10
ID : 12
Format : UTF-8
Codec ID : S_TEXT/UTF8
Codec ID/Info : UTF-8 Plain Text
Duration : 2 h 7 min
Bit rate : 55 b/s
Count of elements : 1624
Stream size : 51.6 KiB (0%)
Title : French
Language : French
Default : No
Forced : No

Text #11
ID : 13
Format : UTF-8
Codec ID : S_TEXT/UTF8
Codec ID/Info : UTF-8 Plain Text
Duration : 2 h 5 min
Bit rate : 95 b/s
Count of elements : 1705
Stream size : 87.9 KiB (0%)
Title : Hebrew
Language : Hebrew
Default : No
Forced : No

Text #12
ID : 14
Format : UTF-8
Codec ID : S_TEXT/UTF8
Codec ID/Info : UTF-8 Plain Text
Duration : 2 h 5 min
Bit rate : 151 b/s
Count of elements : 1753
Stream size : 139 KiB (0%)
Title : Hindi
Language : Hindi
Default : No
Forced : No

Text #13
ID : 15
Format : UTF-8
Codec ID : S_TEXT/UTF8
Codec ID/Info : UTF-8 Plain Text
Duration : 2 h 7 min
Bit rate : 51 b/s
Count of elements : 1666
Stream size : 47.8 KiB (0%)
Title : Hungarian
Language : Hungarian
Default : No
Forced : No

Text #14
ID : 16
Format : UTF-8
Codec ID : S_TEXT/UTF8
Codec ID/Info : UTF-8 Plain Text
Duration : 2 h 7 min
Bit rate : 49 b/s
Count of elements : 1743
Stream size : 46.2 KiB (0%)
Title : Indonesian
Language : Indonesian
Default : No
Forced : No

Text #15
ID : 17
Format : UTF-8
Codec ID : S_TEXT/UTF8
Codec ID/Info : UTF-8 Plain Text
Duration : 2 h 7 min
Bit rate : 49 b/s
Count of elements : 1736
Stream size : 46.2 KiB (0%)
Title : Italian
Language : Italian
Default : No
Forced : No

Text #16
ID : 18
Format : UTF-8
Codec ID : S_TEXT/UTF8
Codec ID/Info : UTF-8 Plain Text
Duration : 2 h 7 min
Bit rate : 46 b/s
Count of elements : 1820
Stream size : 43.8 KiB (0%)
Title : Japanese
Language : Japanese
Default : No
Forced : No

Text #17
ID : 19
Format : UTF-8
Codec ID : S_TEXT/UTF8
Codec ID/Info : UTF-8 Plain Text
Duration : 2 h 7 min
Bit rate : 61 b/s
Count of elements : 1757
Stream size : 57.4 KiB (0%)
Title : Korean
Language : Korean
Default : No
Forced : No

Text #18
ID : 20
Format : UTF-8
Codec ID : S_TEXT/UTF8
Codec ID/Info : UTF-8 Plain Text
Duration : 2 h 7 min
Bit rate : 46 b/s
Count of elements : 1659
Stream size : 43.6 KiB (0%)
Title : Norwegian
Language : Norwegian Bokmal
Default : No
Forced : No

Text #19
ID : 21
Format : UTF-8
Codec ID : S_TEXT/UTF8
Codec ID/Info : UTF-8 Plain Text
Duration : 2 h 7 min
Bit rate : 50 b/s
Count of elements : 1395
Stream size : 46.9 KiB (0%)
Title : Dutch
Language : Dutch
Default : No
Forced : No

Text #20
ID : 22
Format : UTF-8
Codec ID : S_TEXT/UTF8
Codec ID/Info : UTF-8 Plain Text
Duration : 2 h 7 min
Bit rate : 44 b/s
Count of elements : 1718
Stream size : 41.9 KiB (0%)
Title : Polish
Language : Polish
Default : No
Forced : No

Text #21
ID : 23
Format : UTF-8
Codec ID : S_TEXT/UTF8
Codec ID/Info : UTF-8 Plain Text
Duration : 2 h 7 min
Bit rate : 54 b/s
Count of elements : 1725
Stream size : 51.1 KiB (0%)
Title : Portuguese
Language : Portuguese
Default : No
Forced : No

Text #22
ID : 24
Format : UTF-8
Codec ID : S_TEXT/UTF8
Codec ID/Info : UTF-8 Plain Text
Duration : 2 h 7 min
Bit rate : 47 b/s
Count of elements : 1679
Stream size : 44.2 KiB (0%)
Title : Brazilian Portuguese
Language : Portuguese
Default : No
Forced : No

Text #23
ID : 25
Format : UTF-8
Codec ID : S_TEXT/UTF8
Codec ID/Info : UTF-8 Plain Text
Duration : 2 h 5 min
Bit rate : 58 b/s
Count of elements : 1677
Stream size : 54.2 KiB (0%)
Title : Romanian
Language : Romanian
Default : No
Forced : No

Text #24
ID : 26
Format : UTF-8
Codec ID : S_TEXT/UTF8
Codec ID/Info : UTF-8 Plain Text
Duration : 2 h 7 min
Bit rate : 83 b/s
Count of elements : 1644
Stream size : 78.0 KiB (0%)
Title : Russian
Language : Russian
Default : No
Forced : No

Text #25
ID : 27
Format : UTF-8
Codec ID : S_TEXT/UTF8
Codec ID/Info : UTF-8 Plain Text
Duration : 2 h 7 min
Bit rate : 50 b/s
Count of elements : 1538
Stream size : 47.1 KiB (0%)
Title : Swedish
Language : Swedish
Default : No
Forced : No

Text #26
ID : 28
Format : UTF-8
Codec ID : S_TEXT/UTF8
Codec ID/Info : UTF-8 Plain Text
Duration : 2 h 5 min
Bit rate : 146 b/s
Count of elements : 1754
Stream size : 135 KiB (0%)
Title : Thai
Language : Thai
Default : No
Forced : No

Text #27
ID : 29
Format : UTF-8
Codec ID : S_TEXT/UTF8
Codec ID/Info : UTF-8 Plain Text
Duration : 2 h 7 min
Bit rate : 50 b/s
Count of elements : 1634
Stream size : 47.0 KiB (0%)
Title : Turkish
Language : Turkish
Default : No
Forced : No

Text #28
ID : 30
Format : UTF-8
Codec ID : S_TEXT/UTF8
Codec ID/Info : UTF-8 Plain Text
Duration : 2 h 5 min
Bit rate : 72 b/s
Count of elements : 1725
Stream size : 66.7 KiB (0%)
Title : Vietnamese
Language : Vietnamese
Default : No
Forced : No

Text #29
ID : 31
Format : UTF-8
Codec ID : S_TEXT/UTF8
Codec ID/Info : UTF-8 Plain Text
Duration : 2 h 7 min
Bit rate : 65 b/s
Count of elements : 1761
Stream size : 61.5 KiB (0%)
Title : Simplified Chinese
Language : Chinese
Default : No
Forced : No

Text #30
ID : 32
Format : UTF-8
Codec ID : S_TEXT/UTF8
Codec ID/Info : UTF-8 Plain Text
Duration : 2 h 5 min
Bit rate : 56 b/s
Count of elements : 1771
Stream size : 51.9 KiB (0%)
Title : Traditional Chinese
Language : Chinese
Default : No
Forced : No

[/url][url=https://imagecurl.com/viewer.php?file=23612624555110328770.png][url=https://imagecurl.com/viewer.php?file=25120861562354599612.png][/url]
游客,如果您要查看本帖隐藏内容请回复
发表于 2019-12-14 00:59:31 | 显示全部楼层
楼主辛苦了,谢谢首发之家!!
发表于 2019-12-14 09:33:58 | 显示全部楼层
谢谢分享,顶一下
发表于 2019-12-14 09:53:53 | 显示全部楼层
: 鬼影特攻:以暴制暴 6.Underground.2019.1080p.NF.WEBRip.DD5.1.x264-FGT 7
发表于 2019-12-14 10:18:50 | 显示全部楼层
楼主辛苦了,谢谢首发之家!!
发表于 2019-12-14 11:56:16 | 显示全部楼层
楼主辛苦了,谢谢首发之家!!
发表于 2019-12-14 12:36:25 | 显示全部楼层
楼主辛苦了,谢谢首发之家!!
发表于 2019-12-14 13:02:10 | 显示全部楼层
感謝樓主分享
发表于 2019-12-14 15:27:14 | 显示全部楼层
楼主辛苦了,谢谢首发之家!!
发表于 2019-12-14 18:25:50 | 显示全部楼层
楼主辛苦了,谢谢首发之家!!
您需要登录后才可以回帖 登录 | 立即注册 用百度帐号登录

本版积分规则

手机版

轻松易点,迅速到家!

官方微信

扫描二维码,即刻与小易亲密互动,还有劲爆优惠等你来拿!

订阅QQ邮件

第一手促销资讯,尊享邮件特惠商品,优惠不错过!

广告招商QQ:2295479776|小黑屋|手机版|首发之家论坛 |网站地图

GMT+8, 2020-9-27 15:57 , Processed in 0.106552 second(s), 24 queries , XCache On.

Powered by Discuz! X3.4

@ 2001-2013 Comsenz Inc.

快速回复 返回顶部 返回列表