立即注册
 找回密码
 立即注册

扫一扫,访问微社区

用百度帐号登录

只需两步,快速登录

查看: 217|回复: 18

[剧情] 谋杀疑云/猜猜猜谁是凶手 Murder.Mystery.2019.iNTERNAL.HDR.1080p.WEB.h265-FaiLE...

[复制链接]
发表于 2019-11-4 14:53:32 | 显示全部楼层 |阅读模式


◎译  名 谋杀疑云 / 猜猜猜谁是凶手(港) / 谋杀之谜 / 谋杀案 / 谋杀疑案
◎片  名 Murder Mystery
◎年  代 2019
◎产  地 美国
◎类  别 剧情 / 喜剧 / 动作 / 恋爱 / 悬疑
◎语  言 英语
◎上映日期 2019-06-14(美国)
◎IMDb评分 6.4/10 from 30 users
◎IMDb链接 http://www.imdb.com/title/tt1618434
◎豆瓣评分 0/10 from 0 users
电影首发 https://movie.douban.com/subject/15077774/
◎导  演 凯尔·纽瓦切克 Kyle Newacheck
◎编  剧 詹姆斯·范德比尔特 James Vanderbilt
◎主  演 詹妮弗·安妮斯顿 Jennifer Aniston
      亚当·桑德勒 Adam Sandler
      杰玛·阿特登 Gemma Arterton
      卢克·伊万斯 Luke Evans
      丹尼·伯恩 Dany Boon
      忽那汐里 Kutsuna Shiori
      奥拉维尔·达里·奥拉夫松 ólafur Darri ólafsson
      杰姬·桑德勒 Jackie Sandler
      特伦斯·斯坦普 Terence Stamp
      约翰·卡尼 John Kani
      大卫·威廉姆斯 David Walliams
      阿迪勒·阿赫塔尔 Adeel Akhtar
      苏芙·布莱德肖 Sufe Bradshaw
      路易斯·赫拉尔多·门德斯 Luis Gerardo Méndez
      埃里克·格里芬 Erik Griffin
      维克托·特平 Victor Turpin
      妮可·兰德尔·约翰逊 Nicole Randall Johnson
      埃莱娜·卡多纳 Hélène Cardona
      丹妮拉·桑德福德 Daniela Sandiford
      彼得·阿佩塞拉 Peter Arpesella
      拉斐尔·格罗斯-哈维 Raphael Grosz-Harvey
      安德烈·多伦特 Andrea Dolente


◎标  签 喜剧 | 詹妮弗·安妮斯顿 | 美国 | 2019 | Netflix | 犯法 | 美国片子 | 片子

◎简  介

  卢克·伊万斯加盟亚当·桑德勒与詹妮弗·安妮斯顿主演的Netflix新喜剧片《谋杀疑案》(Murder Mystery),桑德勒和安妮斯顿饰演夫妻,男方是一名纽约警察,夫妻往欧洲度假,在飞机上碰着一个神秘汉子(伊万斯),邀请他们往列入一名老年亿万财主的家庭聚会,当这名财主被谋杀后,两人成为头号嫌疑犯。
这是桑德勒第6次与Netflix合作,安妮斯顿是第一次。Kyle Newacheck(《工作狂》)执导,James Vanderbilt(《超凡蜘蛛侠1/2》《十二宫》)编写脚本。

Video
ID : 1
Format : HEVC
Format/Info : High Efficiency Video Coding
Format profile : Main 10@L4@Main
HDR format : SMPTE ST 2086, HDR10 compatible
Codec ID : V_MPEGH/ISO/HEVC
Duration : 1 h 37 min
Bit rate : 5 199 kb/s
Width : 1 920 pixels
Height : 1 080 pixels
Display aspect ratio : 16:9
Frame rate mode : Constant
Frame rate : 24.000 FPS
Color space : YUV
Chroma subsampling : 4:2:0 (Type 2)
Bit depth : 10 bits
Bits/(Pixel*Frame) : 0.104
Stream size : 3.55 GiB (87%)
Default : Yes
Forced : No
Color range : Limited
Color primaries : BT.2020
Transfer characteristics : PQ
Matrix coefficients : BT.2020 non-constant
Mastering display color primaries : Display P3
Mastering display luminance : min: 0.0001 cd/m2, max: 1000 cd/m2
Maximum Content Light Level : 1115 cd/m2
Maximum Frame-Average Light Level : 167 cd/m2

Audio
ID : 2
Format : E-AC-3
Format/Info : Enhanced AC-3
Commercial name : Dolby Digital Plus
Codec ID : A_EAC3
Duration : 1 h 37 min
Bit rate mode : Constant
Bit rate : 640 kb/s
Channel(s) : 6 channels
Channel layout : L R C LFE Ls Rs
Sampling rate : 48.0 kHz
Frame rate : 31.250 FPS (1536 SPF)
Compression mode : Lossy
Stream size : 448 MiB (11%)
Service kind : Complete Main
Default : Yes
Forced : No

Text #1
ID : 3
Format : UTF-8
Codec ID : S_TEXT/UTF8
Codec ID/Info : UTF-8 Plain Text
Title : English
Language : English
Default : No
Forced : No

Text #2
ID : 4
Format : UTF-8
Codec ID : S_TEXT/UTF8
Codec ID/Info : UTF-8 Plain Text
Title : Indonesian
Default : No
Forced : No

Text #3
ID : 5
Format : UTF-8
Codec ID : S_TEXT/UTF8
Codec ID/Info : UTF-8 Plain Text
Title : European Spanish
Language : Spanish
Default : No
Forced : No

Text #4
ID : 6
Format : UTF-8
Codec ID : S_TEXT/UTF8
Codec ID/Info : UTF-8 Plain Text
Title : Swedish
Language : Swedish
Default : No
Forced : No

Text #5
ID : 7
Format : UTF-8
Codec ID : S_TEXT/UTF8
Codec ID/Info : UTF-8 Plain Text
Title : German
Language : German
Default : No
Forced : No

Text #6
ID : 8
Format : UTF-8
Codec ID : S_TEXT/UTF8
Codec ID/Info : UTF-8 Plain Text
Title : Portuguese
Language : Portuguese
Default : No
Forced : No

Text #7
ID : 9
Format : UTF-8
Codec ID : S_TEXT/UTF8
Codec ID/Info : UTF-8 Plain Text
Title : Turkish
Language : Turkish
Default : No
Forced : No

Text #8
ID : 10
Format : UTF-8
Codec ID : S_TEXT/UTF8
Codec ID/Info : UTF-8 Plain Text
Title : Brazilian Portuguese
Language : Portuguese
Default : No
Forced : No

Text #9
ID : 11
Format : UTF-8
Codec ID : S_TEXT/UTF8
Codec ID/Info : UTF-8 Plain Text
Title : Czech
Language : Czech
Default : No
Forced : No

Text #10
ID : 12
Format : UTF-8
Codec ID : S_TEXT/UTF8
Codec ID/Info : UTF-8 Plain Text
Title : Greek
Default : No
Forced : No

Text #11
ID : 13
Format : UTF-8
Codec ID : S_TEXT/UTF8
Codec ID/Info : UTF-8 Plain Text
Title : Norwegian
Language : Norwegian
Default : No
Forced : No

Text #12
ID : 14
Format : UTF-8
Codec ID : S_TEXT/UTF8
Codec ID/Info : UTF-8 Plain Text
Title : Spanish
Language : Spanish
Default : No
Forced : No

Text #13
ID : 15
Format : UTF-8
Codec ID : S_TEXT/UTF8
Codec ID/Info : UTF-8 Plain Text
Title : Italian
Language : Italian
Default : No
Forced : No

Text #14
ID : 16
Format : UTF-8
Codec ID : S_TEXT/UTF8
Codec ID/Info : UTF-8 Plain Text
Title : Russian
Default : No
Forced : No

Text #15
ID : 17
Format : UTF-8
Codec ID : S_TEXT/UTF8
Codec ID/Info : UTF-8 Plain Text
Title : Dutch
Language : Dutch
Default : No
Forced : No

Text #16
ID : 18
Format : UTF-8
Codec ID : S_TEXT/UTF8
Codec ID/Info : UTF-8 Plain Text
Title : Hungarian
Default : No
Forced : No

Text #17
ID : 19
Format : UTF-8
Codec ID : S_TEXT/UTF8
Codec ID/Info : UTF-8 Plain Text
Title : Finnish
Language : Finnish
Default : No
Forced : No

Text #18
ID : 20
Format : UTF-8
Codec ID : S_TEXT/UTF8
Codec ID/Info : UTF-8 Plain Text
Title : Danish
Language : Danish
Default : No
Forced : No

Text #19
ID : 21
Format : UTF-8
Codec ID : S_TEXT/UTF8
Codec ID/Info : UTF-8 Plain Text
Title : French
Language : French
Default : No
Forced : No

Text #20
ID : 22
Format : UTF-8
Codec ID : S_TEXT/UTF8
Codec ID/Info : UTF-8 Plain Text
Title : Polish
Language : Polish
Default : No
Forced : No

[url=https://imagecurl.com/viewer.php?file=94388293521448482335.jpg][/url]
游客,如果您要查看本帖隐藏内容请回复
发表于 2019-11-4 15:25:29 | 显示全部楼层
谢谢谢谢谢谢谢谢
发表于 2019-11-4 15:26:03 | 显示全部楼层
谢谢谢谢谢谢谢谢谢谢
发表于 2019-11-4 15:48:25 | 显示全部楼层
楼主辛苦了,谢谢首发之家!!
发表于 2019-11-4 17:56:41 | 显示全部楼层
楼主辛苦了,谢谢首发之家!!
发表于 2019-11-4 17:57:22 | 显示全部楼层
楼主辛苦了,谢谢首发之家!!

发表于 2019-11-4 18:21:06 | 显示全部楼层
楼主辛苦了,感谢首发之荚丁!
发表于 2019-11-4 18:21:38 | 显示全部楼层
楼主辛苦了,感谢首发之荚丁!
发表于 2019-11-4 18:39:22 | 显示全部楼层
谢谢楼主分享!
发表于 2019-11-4 18:40:02 | 显示全部楼层
谢谢楼主分享!
您需要登录后才可以回帖 登录 | 立即注册 用百度帐号登录

本版积分规则

手机版

轻松易点,迅速到家!

官方微信

扫描二维码,即刻与小易亲密互动,还有劲爆优惠等你来拿!

订阅QQ邮件

第一手促销资讯,尊享邮件特惠商品,优惠不错过!

广告招商QQ:2295479776|小黑屋|手机版|首发之家论坛 |网站地图

GMT+8, 2019-11-14 22:42 , Processed in 0.199399 second(s), 23 queries , XCache On.

Powered by Discuz! X3.4

@ 2001-2013 Comsenz Inc.

快速回复 返回顶部 返回列表