立即注册
 找回密码
 立即注册

扫一扫,访问微社区

用百度帐号登录

只需两步,快速登录

查看: 524|回复: 51

[剧情] 狮子王/狮子王真 人版 The.Lion.King.2019.1080p.BluRay.x264-SPARKS 5.48GB

[复制链接]
发表于 2019-10-11 15:54:16 | 显示全部楼层 |阅读模式


◎译  名 狮子王 / 狮子王真人版 / 狮子王真实版 / 狮子王真狮版
◎片  名 The Lion King
◎年  代 2019
◎产  地 美国
◎类  别 剧情 / 动画 / 冒险
◎语  言 英语 / 科萨语
◎上映日期 2019-07-12(中国大陆) / 2019-07-19(美国)
◎IMDb评分 7.1/10 from 104480 users
◎IMDb链接 http://www.imdb.com/title/tt6105098
◎豆瓣评分 7.4/10 from 196500 users
◎豆瓣链接 https://movie.douban.com/subject/26884354/
◎片  长 118分钟
◎导  演 乔恩·费儒 Jon Favreau
◎编  剧 杰夫·内桑森 Jeff Nathanson / 布兰达?查普曼 Brenda Chapman / 艾琳·梅琪 Irene Mecchi / 乔纳森·罗伯茨 Jonathan Roberts / 琳达·伍尔芙顿 Linda Woolverton
◎主  演 唐纳德·格洛弗 Donald Glover
      阿尔法·伍达德 Alfre Woodard
      詹姆斯·厄尔·琼斯 James Earl Jones
      切瓦特·埃加福特 Chiwetel Ejiofor
      科甘-迈克尔·凯 Keegan-Michael Key
      塞斯·罗根 Seth Rogen
      比利·艾希纳 Billy Eichner
      碧昂丝·诺尔斯 Beyoncé Knowles
      埃里克·安德烈 Eric André
      弗洛伦丝·卡松巴 Florence Kasumba
      约翰·卡尼 John Kani
      约翰·奥利弗 John Oliver
      艾米·塞德丽丝 Amy Sedaris


◎标  签 迪士尼 | 经典 | 动画 | 童年 | 美国 | 成长 | 2019 | 动物

◎简  介

  非洲大草原上一轮红日冉冉升起,为嵬峨的乞力马扎罗山披上层金色的光纱,所有的动物涌向了统一个处所——光荣石,高兴地守候着一个重大动静的发布揭橥:它们的国王木法沙将迎来自己的新生儿。
  这个新生儿就是小狮子辛巴,它是木法沙的法定接棒人、光荣石未来的国王。
  小狮子王辛巴在浩瀚热情的同伙的伴随下,不只经验了人射中最光荣的时刻,也蒙受了最艰辛的挑衅,最后终于成为了森林之王,也在周而复始生生不息的天然中体味出身命的真义。

◎获奖情况

  第5届豆瓣片子年度榜单(2018)
  最值得等候的外语片子(提名)
Video
ID : 1
Format : AVC
Format/Info : Advanced Video Codec
Format profile : High@L4.1
Format settings : CABAC / 4 Ref Frames
Format settings, CABAC : Yes
Format settings, Reference frames : 4 frames
Codec ID : V_MPEG4/ISO/AVC
Duration : 1 h 58 min
Bit rate : 5 105 kb/s
Width : 1 920 pixels
Height : 1 080 pixels
Display aspect ratio : 16:9
Frame rate mode : Constant
Frame rate : 23.976 FPS
Color space : YUV
Chroma subsampling : 4:2:0
Bit depth : 8 bits
Scan type : Progressive
Bits/(Pixel*Frame) : 0.103
Stream size : 4.22 GiB (77%)
Writing library : x264 core 158 r2984 3759fcb
Encoding settings : cabac=1 / ref=4 / deblock=1:1:1 / analyse=0x3:0x113 / me=umh / subme=8 / psy=1 / psy_rd=0.40:0.00 / mixed_ref=1 / me_range=16 / chroma_me=1 / trellis=1 / 8x8dct=1 / cqm=0 / deadzone=21,11 / fast_pskip=1 / chroma_qp_offset=-2 / threads=30 / lookahead_threads=5 / sliced_threads=0 / nr=0 / decimate=1 / interlaced=0 / bluray_compat=0 / constrained_intra=0 / bframes=5 / b_pyramid=2 / b_adapt=1 / b_bias=0 / direct=3 / weightb=1 / open_gop=0 / weightp=2 / keyint=250 / keyint_min=23 / scenecut=40 / intra_refresh=0 / rc_lookahead=50 / rc=2pass / mbtree=1 / bitrate=5105 / ratetol=1.0 / qcomp=0.60 / qpmin=0 / qpmax=69 / qpstep=4 / cplxblur=20.0 / qblur=0.5 / ip_ratio=1.40 / aq=1:0.60
Language : English
Default : Yes
Forced : No

Audio
ID : 2
Format : DTS
Format/Info : Digital Theater Systems
Codec ID : A_DTS
Duration : 1 h 58 min
Bit rate mode : Constant
Bit rate : 1 509 kb/s
Channel(s) : 6 channels
Channel layout : C L R Ls Rs LFE
Sampling rate : 48.0 kHz
Frame rate : 93.750 FPS (512 SPF)
Bit depth : 24 bits
Compression mode : Lossy
Stream size : 1.25 GiB (23%)
Language : English
Default : Yes
Forced : No

Menu
00:00:00.000 : en:00:00:00.000
00:04:50.499 : en:00:04:50.499
00:10:51.067 : en:00:10:51.067
00:17:47.692 : en:00:17:47.692
00:23:53.015 : en:00:23:53.015
00:30:00.132 : en:00:30:00.132
00:33:05.066 : en:00:33:05.066
00:37:09.310 : en:00:37:09.310
00:43:42.912 : en:00:43:42.912
00:50:47.336 : en:00:50:47.336
00:55:02.716 : en:00:55:02.716
00:59:48.460 : en:00:59:48.460
01:06:27.233 : en:01:06:27.233
01:14:32.093 : en:01:14:32.093
01:18:26.410 : en:01:18:26.410
01:23:07.900 : en:01:23:07.900
01:28:04.654 : en:01:28:04.654
01:33:10.877 : en:01:33:10.877
01:37:13.745 : en:01:37:13.745
01:44:39.190 : en:01:44:39.190
01:47:47.336 : en:01:47:47.336

[url=https://imagecurl.com/viewer.php?file=52887760166052500844.jpg][/url]
游客,如果您要查看本帖隐藏内容请回复
发表于 2019-10-11 15:58:10 | 显示全部楼层
楼主辛苦了,谢谢首发之家!!
发表于 2019-10-11 16:31:42 | 显示全部楼层
这个电影好像一般
但还是谢谢楼主
发表于 2019-10-11 16:32:05 | 显示全部楼层
这个电影好像一般
但还是谢谢楼主
发表于 2019-10-11 16:44:12 | 显示全部楼层
楼主辛苦了,谢谢首发之家!!
发表于 2019-10-11 16:46:07 | 显示全部楼层
这个是高清版的吗?
发表于 2019-10-11 17:45:54 | 显示全部楼层
好好好,有高清了,谢谢分享
发表于 2019-10-11 17:46:26 | 显示全部楼层
谢谢分享谢谢谢谢
发表于 2019-10-11 18:28:46 | 显示全部楼层
楼主辛苦了,谢谢首发之家!!
发表于 2019-10-11 18:38:50 | 显示全部楼层
感谢楼主分享
您需要登录后才可以回帖 登录 | 立即注册 用百度帐号登录

本版积分规则

手机版

轻松易点,迅速到家!

官方微信

扫描二维码,即刻与小易亲密互动,还有劲爆优惠等你来拿!

订阅QQ邮件

第一手促销资讯,尊享邮件特惠商品,优惠不错过!

广告招商QQ:2295479776|小黑屋|手机版|首发之家论坛 |网站地图

GMT+8, 2019-11-19 10:51 , Processed in 0.207298 second(s), 23 queries , XCache On.

Powered by Discuz! X3.4

@ 2001-2013 Comsenz Inc.

快速回复 返回顶部 返回列表