立即注册
 找回密码
 立即注册

扫一扫,访问微社区

用百度帐号登录

只需两步,快速登录

查看: 180|回复: 15

[动作] 疾速备战 John.Wick.Chapter.3.Parabellum.2019.INTERNAL.HDR.2160p.WEB.X265-DEFL...

[复制链接]
发表于 2019-8-24 11:51:23 | 显示全部楼层 |阅读模式


◎译  名 疾速备战 / Alpha Cop / John Wick 3 / John Wick 3: Parabellum / John Wick: Chapter 3 / 守护任务3:周全开战(台) / 杀神John Wick 3(港) / 极速追杀:第三章 / 疾速追杀3 / 疾速流亡 / 约翰·威克3 / 还我狗命3(豆友译名)
◎片  名 John Wick: Chapter 3 - Parabellum
◎年  代 2019
◎产  地 美国
◎类  别 动作 / 惊悚 / 犯法
◎语  言 英语 / 俄语 / 日语 / 意大利语 / 阿拉伯语
◎上映日期 2019-05-17(美国)
◎IMDb评分 7.8/10 from 130864 users
◎IMDb链接 http://www.imdb.com/title/tt6146586
◎豆瓣评分 8.0/10 from 49459 users
◎豆瓣链接 https://movie.douban.com/subject/26909790/
◎片  长 131分钟
◎导  演 查德·斯塔赫斯基 Chad Stahelski
◎编  剧 德里克·科尔斯塔 Derek Kolstad / 谢伊·哈滕 Shay Hatten / 渴攀里斯·柯林斯 Chris Collins / 马克·艾布拉姆斯 Marc Abrams
◎主  演 基努·里维斯 Keanu Reeves
      哈莉·贝瑞 Halle Berry
      劳伦斯·菲什伯恩 Laurence Fishburne
      安杰丽卡·休斯顿 Anjelica Huston
      伊恩·麦柯肖恩 Ian McShane
      马克·达卡斯考斯 Mark Dacascos
      艾莎·凯特·狄龙 Asia Kate Dillon
      兰斯·莱迪克 Lance Reddick
      萨伊德·塔格马奥 Sa?d Taghmaoui
      杰罗姆·弗林 Jerome Flynn
      杰森·曼兹沃克斯 Jason Mantzoukas
      托拜厄斯·西格尔 Tobias Segal
      博班·马里亚诺维奇 Boban Marjanovic
      罗宾·泰勒 Robin Lord Taylor
      罗比·德拉费勒 Robbie DeRaffele
      费斯·洛根 Faith Logan
      雅彦·鲁伊安 Yayan Ruhian
      兰德尔·杜克·金 Randall Duk Kim
      袁之正 Roger Yuan
      陈虎 Tiger Hu Chen
      安东尼·帕迪利亚 Anthony Padilla
      斯特凡尼娅·马卡洛娃 Stefaniya Makarova
      西尔维奥·西马克 Silvio Simac
      马米·科西科 Marmee Cosico
      罗曼·米蒂齐扬 Roman Mitichyan
      塞塞普·阿里夫·拉赫曼 Cecep Arif Rahman
      安妮·比萨比亚 Annie Pisapia
      约翰·盖蒂尔 John Gettier


◎标  签 动作 | 暴力美学 | 暴力 | 美国 | 犯法 | 肾上腺素 | 2019 | 杀手

◎简  介

  约翰·威克经验了前两次的追杀、特攻之后,因为执意破损酒店礼貌,因而遭到赏格通缉,全球杀手闻风而至、一路追杀。此次他又将若何杀出重围,终结这场流亡之旅。
Video
ID : 1
Format : HEVC
Format/Info : High Efficiency Video Coding
Format profile : Main 10@L5@High
HDR format : SMPTE ST 2086, HDR10 compatible
Codec ID : V_MPEGH/ISO/HEVC
Duration : 2 h 10 min
Bit rate : 13.0 Mb/s
Width : 3 840 pixels
Height : 1 600 pixels
Original height : 2 160 pixels
Display aspect ratio : 16:9
Frame rate mode : Constant
Frame rate : 23.976 (23976/1000) FPS
Color space : YUV
Chroma subsampling : 4:2:0 (Type 2)
Bit depth : 10 bits
Bits/(Pixel*Frame) : 0.089
Stream size : 11.9 GiB (95%)
Writing library : x265 3.0:[Linux][GCC 4.8.3][64 bit] 10bit
Encoding settings : cpuid=1111039 / frame-threads=1 / wpp / no-pmode / no-pme / no-psnr / no-ssim / log-level=2 / input-csp=1 / input-res=3840x2160 / interlace=0 / total-frames=0 / level-idc=50 / high-tier=1 / uhd-bd=0 / ref=4 / no-allow-non-conformance / repeat-headers / annexb / aud / hrd / info / hash=0 / no-temporal-layers / no-open-gop / min-keyint=96 / keyint=96 / gop-lookahead=0 / bframes=8 / b-adapt=2 / b-pyramid / bframe-bias=0 / rc-lookahead=25 / lookahead-slices=1 / scenecut=0 / radl=0 / no-splice / no-intra-refresh / ctu=64 / min-cu-size=8 / rect / no-amp / max-tu-size=32 / tu-inter-depth=1 / tu-intra-depth=1 / limit-tu=0 / rdoq-level=2 / dynamic-rd=0.00 / no-ssim-rd / signhide / no-tskip / nr-intra=100 / nr-inter=400 / no-constrained-intra / strong-intra-smoothing / max-merge=3 / limit-refs=3 / limit-modes / me=3 / subme=3 / merange=57 / temporal-mvp / weightp / no-weightb / no-analyze-src-pics / deblock=-1:-1 / sao / no-sao-non-deblock / rd=4 / no-early-skip / rskip / no-fast-intra / no-tskip-fast / no-cu-lossless / no-b-intra / no-splitrd-skip / rdpenalty=0 / psy-rd=1.00 / psy-rdoq=1.50 / no-rd-refine / no-lossless / cbqpoffs=-2 / crqpoffs=-2 / rc=abr / bitrate=13387 / qcomp=0.60 / qpstep=4 / stats-write=1 / stats-read=2 / cplxblur=20.0 / qblur=0.5 / vbv-maxrate=16064 / vbv-bufsize=40161 / vbv-init=0.7 / ipratio=1.40 / pbratio=1.30 / aq-mode=2 / aq-strength=1.00 / cutree / zone-count=0 / no-strict-cbr / qg-size=32 / no-rc-grain / qpmax=69 / qpmin=0 / no-const-vbv / sar=1 / overscan=0 / videoformat=5 / range=0 / colorprim=9 / transfer=16 / colormatrix=9 / chromaloc=1 / chromaloc-top=2 / chromaloc-bottom=2 / display-window=0 / master-display=G(13250,34500)B(7500,3000)R(34000,16000)WP(15635,16450)L(40000000,50) / max-cll=0,0 / min-luma=0 / max-luma=1023 / log2-max-poc-lsb=8 / vui-timing-info / vui-hrd-info / slices=1 / no-opt-qp-pps / no-opt-ref-list-length-pps / no-multi-pass-opt-rps / scenecut-bias=0.05 / no-opt-cu-delta-qp / no-aq-motion / hdr / hdr-opt / no-dhdr10-opt / no-idr-recovery-sei / analysis-reuse-level=5 / scale-factor=0 / refine-intra=0 / refine-inter=0 / refine-mv=0 / refine-ctu-distortion=0 / no-limit-sao / ctu-info=0 / no-lowpass-dct / refine-analysis-type=0 / copy-pic=1 / max-ausize-factor=1.0 / no-dynamic-refine / no-single-sei / no-hevc-aq / qp-adaptation-range=1.00
Language : English
Default : Yes
Forced : No
Color range : Limited
Color primaries : BT.2020
Transfer characteristics : PQ
Matrix coefficients : BT.2020 non-constant
Mastering display color primaries : Display P3
Mastering display luminance : min: 0.0050 cd/m2, max: 4000 cd/m2

Audio
ID : 2
Format : E-AC-3 JOC
Format/Info : Enhanced AC-3 with Joint Object Coding
Commercial name : Dolby Digital Plus with Dolby Atmos
Codec ID : A_EAC3
Duration : 2 h 10 min
Bit rate mode : Constant
Bit rate : 448 kb/s
Channel(s) : 6 channels
Channel layout : L R C LFE Ls Rs
Sampling rate : 48.0 kHz
Frame rate : 31.250 FPS (1536 SPF)
Compression mode : Lossy
Stream size : 419 MiB (3%)
Language : English
Service kind : Complete Main
Default : Yes
Forced : No
Complexity index : 16
Number of dynamic objects : 15
Bed channel count : 1 channel
Bed channel configuration : LFE

Text #1
ID : 3
Format : UTF-8
Codec ID : S_TEXT/UTF8
Codec ID/Info : UTF-8 Plain Text
Title : English
Language : English
Default : No
Forced : No

Text #2
ID : 4
Format : UTF-8
Codec ID : S_TEXT/UTF8
Codec ID/Info : UTF-8 Plain Text
Title : English (SDH)
Language : English
Default : No
Forced : No

[/url][url=https://imagecurl.com/viewer.php?file=10848047561593569386.png][url=https://imagecurl.com/viewer.php?file=73078657379501721401.png][/url]
游客,如果您要查看本帖隐藏内容请回复
发表于 2019-8-24 12:09:23 | 显示全部楼层
沙发一个,多谢分享。好片不容错过。
发表于 2019-8-24 13:47:02 | 显示全部楼层
感谢楼主分享
发表于 2019-8-24 14:21:53 | 显示全部楼层
分隔符过付过付付付付过或过或或
发表于 2019-8-24 15:27:36 来自手机 | 显示全部楼层
怎么没有国语????
发表于 2019-8-24 16:52:18 | 显示全部楼层
谢谢楼主分享 影片很好看 我很喜欢
发表于 2019-8-24 22:35:58 | 显示全部楼层
楼主辛苦了
发表于 2019-8-25 08:34:50 | 显示全部楼层

感谢楼主分享
发表于 2019-8-25 10:30:27 | 显示全部楼层
楼主辛苦了,感谢首发之荚丁!
发表于 2019-8-25 12:58:05 | 显示全部楼层
楼主辛苦了,谢谢首发之家!!
您需要登录后才可以回帖 登录 | 立即注册 用百度帐号登录

本版积分规则

手机版

轻松易点,迅速到家!

官方微信

扫描二维码,即刻与小易亲密互动,还有劲爆优惠等你来拿!

订阅QQ邮件

第一手促销资讯,尊享邮件特惠商品,优惠不错过!

广告招商QQ:2295479776|小黑屋|手机版|首发之家论坛 |网站地图

GMT+8, 2019-9-17 00:16 , Processed in 0.124935 second(s), 22 queries , XCache On.

Powered by Discuz! X3.4

@ 2001-2013 Comsenz Inc.

快速回复 返回顶部 返回列表