立即注册
 找回密码
 立即注册

扫一扫,访问微社区

用百度帐号登录

只需两步,快速登录

查看: 1337|回复: 196

[动作] [扫毒2 天地对决2019][WEB-DL][1.11GB][国语中英字][720P]

  [复制链接]
发表于 2019-8-22 22:28:52 | 显示全部楼层 |阅读模式
459503c0ba9553c8308632f02583bb57.jpg

◎译  名 扫毒2寰宇对决/The White Storm 2: Drug Lords/扫毒2:寰宇对决
◎片  名 掃毒2:寰宇對決
◎年  代 2019
◎产  地 中国大陆,中国喷香港
◎类  别 剧情 / 动作 / 悬疑 / 犯法
◎语  言 汉语通俗话,粤语
◎上映日期 2019-07-05(中国大陆) / 2019-07-16(中国喷香港)
◎豆瓣评分 6.2/10 from 105,987 users
◎片  长 99分钟
◎导  演 邱礼涛 Herman Yau
◎编  剧 李敏 Erica Lee
◎主  演 刘德华 Andy Lau
       古天乐 Louis Koo
       苗侨伟 Kiu Wai Miu
       林嘉欣 Karena Lam
       周秀娜 Chrissie Chaw
       应采儿 Cherrie Ying
       陈家乐 Carlos Chan
       卫诗雅 Michelle Wai
       郑则仕 Kent Cheng
       张国强 Kwok Keung Cheung
       陈佩诗 Peishi Chen
       狼森 Philippe Joly
       欧阳靖 Jin Auyeung
       恭硕良 Jun Kung
       林家栋 Ka Tung Lam
       李赏 Faith Lee
       张竣杰 Chun Kit Chang
       李灿森 Sam Lee

◎标  签 喷香港 | 警匪 | 犯法 | 缉毒 | ** | 动作 | 华仔 | 2019

◎简  介

  **市场保持四分世界的式子已久,但自从地躲与墨西哥大毒枭跨境合作扩大权势,再加上连续串黑吃黑的动作,毒界变得风声鹤唳。另一方面,因儿时亲眼目睹父亲被**所毁而嫉毒如仇的慈善家兼金融巨子余顺天,正赏格一亿歼灭喷香港最大毒贩,此举在社会上引起轩然大波。警察林正风本致力搜证逮捕地躲,毒贩却因巨额赏格导致人身平安受威胁,他在履行珍重毒贩的任务时深感无奈,但又被余顺天的出价所诱惑,陷进诟谇正邪的心理挣扎。本来,余顺天和地躲有弗成告人的同门关系,一场寰宇对决剑拔弩张。

General
Complete name                            : The White Storm 2 Drug Lords.2019.720P.WEB-DL.H264.AAC-WeiBo.mp4
Format                                   : MPEG-4
Format profile                           : Base Media
Codec ID                                 : isom (isom/iso2/avc1/mp41/letv)
File size                                : 1.11 GiB
Duration                                 : 1 h 39 min
Overall bit rate                         : 1 604 kb/s
Movie name                               : PontusSystem
Writing application                      : Lavf56.15.102

Video
ID                                       : 1
Format                                   : AVC
Format/Info                              : Advanced Video Codec
Format profile                           : High@L3.1
Format settings                          : CABAC / 4 Ref Frames
Format settings, CABAC                   : Yes
Format settings, RefFrames               : 4 frames
Codec ID                                 : avc1
Codec ID/Info                            : Advanced Video Coding
Duration                                 : 1 h 39 min
Bit rate                                 : 1 496 kb/s
Width                                    : 1 280 pixels
Height                                   : 528 pixels
Display aspect ratio                     : 2.40:1
Frame rate mode                          : Constant
Frame rate                               : 24.000 FPS
Color space                              : YUV
Chroma subsampling                       : 4:2:0
Bit depth                                : 8 bits
Scan type                                : Progressive
Bits/(Pixel*Frame)                       : 0.092
Stream size                              : 1.04 GiB (93%)
Codec configuration box                  : avcC

Audio
ID                                       : 2
Format                                   : AAC LC
Format/Info                              : Advanced Audio Codec Low Complexity
Codec ID                                 : mp4a-40-2
Duration                                 : 1 h 39 min
Duration_LastFrame                       : -22 ms
Bit rate mode                            : Constant
Bit rate                                 : 96.0 kb/s
Channel(s)                               : 2 channels
Channel layout                           : L R
Sampling rate                            : 44.1 kHz
Frame rate                               : 43.066 FPS (1024 SPF)
Compression mode                         : Lossy
Stream size                              : 68.3 MiB (6%)
Default                                  : Yes
Alternate group                          : 1


aba0a606ab77e2678922df5959ef4559.jpg



游客,如果您要查看本帖隐藏内容请回复
发表于 2019-8-22 22:45:07 | 显示全部楼层
楼主辛苦了,谢谢首发之家!!
发表于 2019-8-22 22:47:44 | 显示全部楼层
楼主辛苦了,谢谢首发之家!!
发表于 2019-8-22 22:51:21 | 显示全部楼层
扫毒2 天地对决2019][WEB-DL][1.11GB][国语中英字][720P] [[url=]修[/url]
发表于 2019-8-22 22:57:06 | 显示全部楼层
楼主辛苦了,感谢首发之荚丁!
发表于 2019-8-22 22:57:47 | 显示全部楼层
谢谢楼主分享
发表于 2019-8-22 23:01:09 | 显示全部楼层
支持支持支持支持支持吃
发表于 2019-8-22 23:16:05 | 显示全部楼层
楼主辛苦了,谢谢首发之家!!
发表于 2019-8-22 23:17:24 | 显示全部楼层
8888888888888888888
您需要登录后才可以回帖 登录 | 立即注册 用百度帐号登录

本版积分规则

手机版

轻松易点,迅速到家!

官方微信

扫描二维码,即刻与小易亲密互动,还有劲爆优惠等你来拿!

订阅QQ邮件

第一手促销资讯,尊享邮件特惠商品,优惠不错过!

广告招商QQ:2295479776|小黑屋|手机版|首发之家论坛 |网站地图

GMT+8, 2019-9-22 17:59 , Processed in 0.095815 second(s), 22 queries , XCache On.

Powered by Discuz! X3.4

@ 2001-2013 Comsenz Inc.

快速回复 返回顶部 返回列表