立即注册
 找回密码
 立即注册

扫一扫,访问微社区

用百度帐号登录

只需两步,快速登录

查看: 2649|回复: 90

[奇幻] 海王 Aquaman.2018.IMAX.2160p.iT.WEB-DL.x265.10bit.SDR.DDP5.1-MOMA 14GB

    [复制链接]
发表于 2019-3-5 23:06:15 | 显示全部楼层 |阅读模式
fcf8212aa1c6fbba0b86847e9feb71a6.jpg
◎译  名 海王 / 人鱼哥(豆友译名) / 水人 / 水行侠(港 / 台) / 潜水侠
◎片  名 Aquaman
◎年  代 2018
◎产  地 美国 / 澳大利亚
◎类  别 动作 / 奇幻 / 冒险
◎语  言 英语 / 毛利语 / 意大利语 / 俄语
◎上映日期 2018-12-07(中国大陆) / 2018-12-21(美国)
◎IMDb评分 7.3/10 from 175666 users
◎豆瓣评分 7.7/10 from 473983 users
◎片  长 143分钟
◎导  演 温子仁 James Wan
◎编  剧 大卫·莱斯利·约翰逊-麦戈德里克 David Leslie Johnson-McGoldrick / 威尔·比尔 Will Beall / 乔夫·琼斯 Geoff Johns / 温子仁 James Wan / 莫尔特·魏辛格 Mort Weisinger / 保罗·诺里斯 Paul Norris
◎主  演 杰森·莫玛 Jason Momoa
      艾梅柏·希尔德 Amber Heard
      威廉·达福 Willem Dafoe
      帕特里克·威尔森 Patrick Wilson
      妮可·基德曼 Nicole Kidman
      杜夫·龙格尔 Dolph Lundgren
      叶海亚·阿卜杜勒-迈丁 Yahya Abdul-Mateen II
      特穆拉·莫里森 Temuera Morrison
      林路迪 Ludi Lin
      迈克尔·比奇 Michael Beach
      兰道尔·朴 Randall Park
      格拉汉姆·麦克泰维什 Graham McTavish
      雷·沃纳尔 Leigh Whannell
      泰努伊·柯克伍德 Tainui Kirkwood
      塔穆尔·柯克伍德 Tamor Kirkwood
      丹泽尔·夸克 Denzel Quirke
      卡恩·古尔杜尔 Kaan Guldur
      奥蒂斯·丹吉 Otis Dhanji
      克考亚·克库毛诺 Kekoa Kekumano
      朱莉·安德鲁斯 Julie Andrews
      约翰·瑞斯-戴维斯 John Rhys-Davies
      杰曼·翰苏 Djimon Hounsou
      索菲亚·福雷斯特 Sophia Forrest
      娜塔莉亚姗福瑞 Natalia Safran
      杰克·安德鲁 Jack Andrew
      汉克·阿莫斯 Hank Amos
      帕特里克·考克斯 Patrick Cox
      罗伯特·朗斯特里特 Robert Longstreet
      德维卡·帕利赫 Devika Parikh
      梅布尔·塔莫内 Mabel Tamone
      文森特·B·拉戈斯 Vincent B. Gorce
      加布里埃拉·佩特科娃 Gabriella Petkova
      爱丽丝·兰斯伯里 Alice Lanesbury
      帕特里克·艾奇逊 Patrick Atchison
      约翰·盖蒂尔 John Gettier
      塔丽亚·杰德·霍尔特 Tahlia Jade Holt
      罗斯·克纳汉 Ross Kernahan
      布拉登·刘易斯 Braden Lewis
      萨尔瓦多·梅伦达 Salvatore Merenda
      山姆·莫纳汉 Sam Monaghan
      温妮·穆赞贝 Winnie Mzembe
      凯·潘塔诺 Kai Pantano
      安娜·帕奇 Anna Patch
      乔恩·奎斯蒂德 Jon Quested
      迪伦·斯图默 Dylan Stumer
      米奇·武尔夫 Mikey Wulff


◎标  签 DC | 超级俊杰 | 特效 | 美国 | 奇幻 | 动作 | 2018 | 漫画改编

◎简  介  

  许多年前,亚特兰蒂斯女王(妮可·基德曼 Nicole Kidman 饰)和仁攀类相知相恋,配合孕育了恋爱的结晶——后来被陆地人称为海王的亚瑟·库瑞(杰森·莫玛 Jason Momoa 饰)。在成长的进程中,亚瑟接收海底导师维科(威廉·达福 Willem Dafoe 饰)的严苛演习,时刻渴看往看看母亲,然而作为混血的私生子这却是奢看。与此同时,亚瑟的同母异父兄弟奥姆(帕特里克·威尔森 Patrick Wilson 饰)成为亚特兰蒂斯的国王,他不满陆地仁攀类对大海的荼毒与污染,遂经营连络其他海底王国策动对陆地的周全战斗。为了阻挡他的野心,维科和奥姆的未婚妻湄拉(艾梅柏·希尔德 Amber Heard 饰)将亚瑟带到海底世界。
宿命鼓动着亚瑟,往寻找失踪落已久的三叉戟,竖立一个加倍开明的海底王国……

◎获奖情况  

  第21届美国服装设计工会奖(2019)
  科幻/奇幻题材片子最佳服装设计(提名) 凯姆·巴雷特

  第6届美国化装及发型设计工会奖(2019)
  片子类最佳特效化装(提名)

  第66届美国音效剪辑协会奖(2019)
  金卷轴奖 最佳配乐剪辑(提名)

  第17届美国视觉结果协会奖(2019)
  最佳真人片子CG配景(提名)
  最佳片子虚拟摄影(提名)

  第5届豆瓣片子年度榜单(2018)
  评分最高的科幻/动作片(提名)

  第4届豆瓣片子年度榜单(2017)
  最值得等候的外语片子(提名)

Video
ID : 1
Format : HEVC
Format/Info : High Efficiency Video Coding
Format profile : Main 10@L5@Main
Codec ID : V_MPEGH/ISO/HEVC
Duration : 2 h 23 min
Bit rate : 14.1 Mb/s
Width : 3 840 pixels
Height : 2 160 pixels
Display aspect ratio : 16:9
Frame rate mode : Constant
Frame rate : 23.976 (24000/1001) FPS
Color space : YUV
Chroma subsampling : 4:2:0
Bit depth : 10 bits
Bits/(Pixel*Frame) : 0.071
Stream size : 14.1 GiB (96%)
Language : English
Default : Yes
Forced : No

Audio
ID : 2
Format : E-AC-3 JOC
Format/Info : Enhanced AC-3 with Joint Object Coding
Commercial name : Dolby Digital Plus with Dolby Atmos
Codec ID : A_EAC3
Duration : 2 h 23 min
Bit rate mode : Constant
Bit rate : 576 kb/s
Channel(s) : 6 channels
Channel layout : L R C LFE Ls Rs
Sampling rate : 48.0 kHz
Frame rate : 31.250 FPS (1536 SPF)
Compression mode : Lossy
Stream size : 591 MiB (4%)
Language : English
Service kind : Complete Main
Default : Yes
Forced : No
Complexity index : 16
Number of dynamic objects : 15
Bed channel count : 1 channel
Bed channel configuration : LFE

Text #1
ID : 3
Format : UTF-8
Codec ID : S_TEXT/UTF8
Codec ID/Info : UTF-8 Plain Text
Duration : 2 h 14 min
Bit rate : 37 b/s
Count of elements : 1132
Stream size : 37.3 KiB (0%)
Language : English
Default : No
Forced : No

Text #2
ID : 4
Format : UTF-8
Codec ID : S_TEXT/UTF8
Codec ID/Info : UTF-8 Plain Text
Duration : 2 h 15 min
Bit rate : 43 b/s
Count of elements : 1474
Stream size : 43.4 KiB (0%)
Title : SDH
Language : English
Default : No
Forced : No




游客,如果您要查看本帖隐藏内容请回复
发表于 2019-3-6 08:43:03 | 显示全部楼层
额,看不懂在说神马~@_@
发表于 2019-3-6 09:49:22 | 显示全部楼层
RE: 海王 Aquaman.2018.IMAX.2160p.iT.WEB-DL.x265.10bit.SDR.DDP5.1
发表于 2019-3-6 12:11:07 | 显示全部楼层
楼主辛苦了,谢谢首发之家!!
发表于 2019-3-6 12:31:20 | 显示全部楼层
楼主辛苦了,谢谢首发之家!!
发表于 2019-3-6 13:04:46 | 显示全部楼层
要查看本帖隐藏内容
发表于 2019-3-6 14:09:31 | 显示全部楼层
有字幕吗 有字幕吗
发表于 2019-3-6 15:05:28 | 显示全部楼层
看看效果如何!!
您需要登录后才可以回帖 登录 | 立即注册 用百度帐号登录

本版积分规则

手机版

轻松易点,迅速到家!

官方微信

扫描二维码,即刻与小易亲密互动,还有劲爆优惠等你来拿!

订阅QQ邮件

第一手促销资讯,尊享邮件特惠商品,优惠不错过!

广告招商QQ:2295479776|小黑屋|手机版|首发之家论坛 |网站地图

GMT+8, 2020-12-1 11:11 , Processed in 0.112257 second(s), 25 queries , XCache On.

Powered by Discuz! X3.4

@ 2001-2013 Comsenz Inc.

快速回复 返回顶部 返回列表