立即注册
 找回密码
 立即注册

扫一扫,访问微社区

用百度帐号登录

只需两步,快速登录

查看: 399|回复: 8

[恐怖] [精变者][BT下载] Psychopaths.2017.1080p.WEB-DL.DD5.1.H264-FGT 2.82GB

[复制链接]
发表于 2018-3-8 22:19:45 | 显示全部楼层 |阅读模式
760e6fa64863b77ebfa314849c905510.jpg
◎译  名 精变者
◎片  名 Psychopaths
◎年  代 2017
◎产  地 美国
◎类  别 可怕
◎语  言 英语
◎上映日期 2017-04-20(翠贝卡片子节)
◎IMDb评分  4.0/10 from 162 users

◎片  长 85分钟
◎导  演 Mickey Keating
◎主  演 阿什丽·贝尔 Ashley Bell
      Jamie Ann Burke
      拉瑞·凡斯登 Larry Fessenden
      Ross Francis
      Jeremy Gardner
      詹姆斯·兰德里·赫伯特 James Landry Hébert
      Mark Kassen
      马修·默瑟 Matt Mercer
      Carson Nicely
      Miranda Parham
      杰弗里·丹尼尔·菲利普斯 Jeffrey Daniel Phillips
      Padraig Reynolds
      海伦·罗杰斯 Helen Rogers
      Ivana Shein
      Katherine Skelton

◎简  介

  Several psychopaths wreak havoc over the course of a violent night.

Video
ID                                       : 1
Format                                   : AVC
Format/Info                              : Advanced Video Codec
Format profile                           : High@L4
Format settings                          : CABAC / 5 Ref Frames
Format settings, CABAC                   : Yes
Format settings, ReFrames                : 5 frames
Codec ID                                 : V_MPEG4/ISO/AVC
Duration                                 : 1 h 21 min
Bit rate                                 : 4 555 kb/s
Width                                    : 1 920 pixels
Height                                   : 848 pixels
Display aspect ratio                     : 2.25:1
Frame rate mode                          : Constant
Frame rate                               : 23.976 (23976/1000) FPS
Color space                              : YUV
Chroma subsampling                       : 4:2:0
Bit depth                                : 8 bits
Scan type                                : Progressive
Bits/(Pixel*Frame)                       : 0.117
Stream size                              : 2.60 GiB (92%)
Title                                    : Psychopaths.2017.1080P.WEB-DL.DD5.1.H.264-FGT
Language                                 : English
Default                                  : Yes
Forced                                   : No
Color range                              : Limited
Color primaries                          : BT.709
Transfer characteristics                 : BT.709
Matrix coefficients                      : BT.709

Audio
ID                                       : 2
Format                                   : AC-3
Format/Info                              : Audio Coding 3
Codec ID                                 : A_AC3
Duration                                 : 1 h 21 min
Bit rate mode                            : Constant
Bit rate                                 : 384 kb/s
Channel(s)                               : 6 channels
Channel positions                        : Front: L C R, Side: L R, LFE
Sampling rate                            : 48.0 kHz
Frame rate                               : 31.250 FPS (1536 SPF)
Bit depth                                : 16 bits
Compression mode                         : Lossy
Stream size                              : 225 MiB (8%)
Title                                    : Psychopaths.2017.1080p.WEB-DL.DD5.1.H.264-FGT
Language                                 : English
Service kind                             : Complete Main
Default                                  : Yes
Forced                                   : No

Text
ID                                       : 3
Format                                   : UTF-8
Codec ID                                 : S_TEXT/UTF8
Codec ID/Info                            : UTF-8 Plain Text
Duration                                 : 1 h 20 min
Bit rate                                 : 58 b/s
Count of elements                        : 1346
Stream size                              : 34.8 KiB (0%)
Language                                 : English
Default                                  : Yes
Forced                                   : No

Menu
00:00:00.000                             : en:1
00:06:21.297                             : en:2
00:10:45.811                             : en:3
00:14:27.574                             : en:4
00:18:49.627                             : en:5
00:26:04.269                             : en:6
00:29:44.197                             : en:7
00:34:24.644                             : en:8
00:39:57.810                             : en:9
00:45:56.835                             : en:10
00:50:59.971                             : en:11
00:54:54.747                             : en:12
00:58:33.090                             : en:13
01:05:23.917                             : en:14
01:10:32.350                             : en:15
01:14:59.700                             : en:16


游客,如果您要查看本帖隐藏内容请回复
发表于 2018-3-12 09:49:15 | 显示全部楼层
啥也不说了,感谢楼主分享哇!

发表于 2018-3-14 09:08:21 | 显示全部楼层
首发之家不能没有像楼主这样的人才!
发表于 2018-3-14 10:22:44 | 显示全部楼层
大力支持 感謝分享!!
发表于 2018-3-16 08:32:40 | 显示全部楼层
恐怖片值得看看
发表于 2020-5-16 17:13:07 | 显示全部楼层
谢谢大老分享!!!

发表于 7 天前 | 显示全部楼层
首发之家不能没有像楼主这样的人才!
发表于 6 天前 | 显示全部楼层
楼主辛苦了,谢谢首发之家!!
您需要登录后才可以回帖 登录 | 立即注册 用百度帐号登录

本版积分规则

手机版

轻松易点,迅速到家!

官方微信

扫描二维码,即刻与小易亲密互动,还有劲爆优惠等你来拿!

订阅QQ邮件

第一手促销资讯,尊享邮件特惠商品,优惠不错过!

广告招商QQ:2295479776|小黑屋|手机版|首发之家论坛 |网站地图

GMT+8, 2020-5-29 12:29 , Processed in 0.118945 second(s), 25 queries , XCache On.

Powered by Discuz! X3.4

@ 2001-2013 Comsenz Inc.

快速回复 返回顶部 返回列表