立即注册
 找回密码
 立即注册

扫一扫,访问微社区

用百度帐号登录

只需两步,快速登录

查看: 646|回复: 25

[索尼4K演示片] 拉斯维加斯百乐宫 (HEVC) [2160P/MKV/855MB]

[复制链接]
发表于 2017-1-24 14:49:50 | 显示全部楼层 |阅读模式
[索尼4K演示片] 拉斯维加斯百乐宫 (HEVC) [2160P/MKV/855MB]
235146o2jd2y24z6xg2x4s.jpg 235148gcictkttzxyn3y37.jpg 235149feu1h873x3ngxnaq.jpg 235149zzccc27a742xnint.jpg 235150fii9cvni7i3hychw.jpg 235151ukoozo0njaantyzm.jpg 235151g663u2b1z76dy2pp.jpg 235152majwr8wgur35axxw.jpg

General
Unique ID : 245857955179869164251519216814671913050 (0xB8F68511437EFFA8A85EEAB96279E05A)
Complete name : Sony.4K.DEMO_Las.Vegas.Bellagio_HEVC.mkv
Format : Matroska
Format version : Version 4 / Version 2
File size : 855 MiB
Duration : 3 min 43 s
Overall bit rate : 32.1 Mbps
Encoded date : UTC 2017-01-07 18:53:30
Writing application : mkvmerge v9.6.0 ('Slave To Your Mind') 64bit
Writing library : libebml v1.3.4 + libmatroska v1.4.5
Encoding Gui : Hybrid 2016.12.23.1

Video
ID : 1
Format : HEVC
Format/Info : High Efficiency Video Coding
Format profile : [email protected]@High
Codec ID : V_MPEGH/ISO/HEVC
Duration : 3 min 43 s
Bit rate : 32.0 Mbps
Width : 3840 pixels
Height : 2160 pixels
Display aspect ratio : 16:9
Frame rate mode : Constant
Frame rate : 23.976 (24000/1001) FPS
Color space : YUV
Chroma subsampling : 4:2:0
Bit depth : 8 bits
Bits/(Pixel*Frame) : 0.161
Stream size : 851 MiB (100%)
Writing library : x265 2.1+74-e5759d587ae2:[Windows][GCC 6.2.0][64 bit] 8bit+10bit+12bit
Encoding settings : cpuid=1173503 / frame-threads=3 / numa-pools=8 / wpp / no-pmode / no-pme / no-psnr / ssim / log-level=2 / input-csp=1 / input-res=3840x2160 / interlace=0 / total-frames=0 / level-idc=51 / high-tier=1 / uhd-bd=0 / ref=5 / no-allow-non-conformance / repeat-headers / annexb / aud / hrd / info / hash=0 / no-temporal-layers / open-gop / min-keyint=23 / keyint=250 / bframes=8 / b-adapt=2 / b-pyramid / bframe-bias=0 / rc-lookahead=60 / lookahead-slices=1 / scenecut=40 / no-intra-refresh / ctu=32 / min-cu-size=8 / no-rect / no-amp / max-tu-size=32 / tu-inter-depth=2 / tu-intra-depth=2 / limit-tu=0 / rdoq-level=1 / signhide / no-tskip / nr-intra=0 / nr-inter=0 / no-constrained-intra / no-strong-intra-smoothing / max-merge=2 / limit-refs=3 / no-limit-modes / me=2 / subme=5 / merange=60 / temporal-mvp / weightp / weightb / no-analyze-src-pics / deblock=-3:-3 / no-sao / no-sao-non-deblock / rd=4 / no-early-skip / no-rskip / no-fast-intra / no-tskip-fast / no-cu-lossless / no-b-intra / rdpenalty=0 / psy-rd=2.00 / psy-rdoq=3.00 / no-rd-refine / analysis-mode=0 / no-lossless / cbqpoffs=0 / crqpoffs=0 / rc=crf / crf=22.0 / qcomp=0.80 / qpstep=6 / stats-write=0 / stats-read=0 / vbv-maxrate=160000 / vbv-bufsize=160000 / vbv-init=0.9 / crf-max=0.0 / crf-min=0.0 / ipratio=1.50 / pbratio=1.10 / aq-mode=1 / aq-strength=0.50 / no-cutree / zone-count=0 / no-strict-cbr / qg-size=32 / no-rc-grain / qpmax=69 / qpmin=0 / sar=1 / overscan=0 / videoformat=5 / range=0 / colorprim=2 / transfer=2 / colormatrix=1 / chromaloc=0 / display-window=0 / max-cll=0,0 / min-luma=0 / max-luma=255 / log2-max-poc-lsb=8 / vui-timing-info / vui-hrd-info / slices=1 / opt-qp-pps / opt-ref-list-length-pps / no-multi-pass-opt-rps / scenecut-bias=0.05
Language : English
Default : Yes
Forced : Yes
Color range : Limited
Matrix coefficients : BT.709

Audio
ID : 2
Format : AAC
Format/Info : Advanced Audio Codec
Format profile : LC
Codec ID : A_AAC
Duration : 3 min 43 s
Bit rate : 128 kbps
Channel(s) : 2 channels
Channel positions : Front: L R
Sampling rate : 48.0 kHz
Frame rate : 46.875 FPS (1024 spf)
Compression mode : Lossy
Stream size : 3.41 MiB (0%)
Language : English
Default : Yes
Forced : No
播放器 : Potplaye/MPC-HC
建议在大屏幕电视上观看才能体验最佳效果

MKV百度云
游客,如果您要查看本帖隐藏内容请回复



发表于 2017-1-24 14:53:50 | 显示全部楼层
啥也不说了,感谢楼主分享哇!
发表于 2017-1-24 15:06:05 | 显示全部楼层
啥也不说了,感谢楼主分享哇!
发表于 2017-1-25 02:50:44 | 显示全部楼层
如果您要查看本帖隐藏内容请回复
发表于 2017-1-27 08:41:38 | 显示全部楼层
RE: [索尼4K演示片] 拉斯维加斯百乐宫 (HEVC) [2160P/MKV/855MB]
发表于 2017-1-31 11:24:13 | 显示全部楼层
啥也不说了,感谢楼主分享哇!
发表于 2017-2-9 18:45:07 | 显示全部楼层
正需要,撑持楼主大人了!
发表于 2017-3-28 09:48:39 来自手机 | 显示全部楼层
啥也不说了,感谢楼主分享哇
发表于 2017-5-14 10:24:55 | 显示全部楼层

啥也不说了,感谢楼主分享哇!
您需要登录后才可以回帖 登录 | 立即注册 用百度帐号登录

本版积分规则

手机版

轻松易点,迅速到家!

官方微信

扫描二维码,即刻与小易亲密互动,还有劲爆优惠等你来拿!

订阅QQ邮件

第一手促销资讯,尊享邮件特惠商品,优惠不错过!

广告招商QQ:2295479776|小黑屋|手机版|首发之家论坛 |网站地图

GMT+8, 2018-9-23 00:49 , Processed in 0.101211 second(s), 27 queries , XCache On.

Powered by Discuz! X3.4

@ 2001-2013 Comsenz Inc.

快速回复 返回顶部 返回列表