立即注册
 找回密码
 立即注册

扫一扫,访问微社区

用百度帐号登录

只需两步,快速登录

查看: 1117|回复: 35

[4K高清短片]佛罗里达州迈阿密海滩 2016[2160P/MP4/1.88GB]

[复制链接]
发表于 2016-8-13 09:40:06 | 显示全部楼层 |阅读模式

[4K高清短片]佛罗里达州迈阿密海滩 2016[2160P/MP4/1.88GB] 170951x9akinjte4ieykvk.jpg 170954phcctyftut2bmcby.jpg 170958np2lg2iy97g0fiff.jpg 171005ljgz71j98ycggqvq.jpg 171010pqnmgzpz8qqvvogq.jpg 171016riihi3jze2gqyg3q.jpg 171018wmjmnj419w8z64g6.jpg 171026xtnocwcutcow4e7l.jpg 171033df4wzq4bbrenpgep.jpg 171038fv9ozyjeb2vsso6a.jpg 171045ymawvrx68ax1rgsv.jpg

General
Complete name : MIAMI BEACH, Florida  - Aerials 4K Drone (UHD 2160p).mp4
Format : MPEG-4
Format profile : Base Media
Codec ID : dash (isom/iso2/avc1/mp41)
File size : 1.88 GiB
Duration : 11 min
Overall bit rate : 22.9 Mbps
Writing application : Lavf56.25.101

Video
ID : 1
Format : AVC
Format/Info : Advanced Video Codec
Format profile : High@L5.1
Format settings, CABAC : No
Format settings, ReFrames : 2 frames
Codec ID : avc1
Codec ID/Info : Advanced Video Coding
Duration : 11 min
Bit rate : 22.8 Mbps
Width : 3840 pixels
Height : 2160 pixels
Display aspect ratio : 16:9
Frame rate mode : Constant
Frame rate : 29.970 (30000/1001) FPS
Color space : YUV
Chroma subsampling : 4:2:0
Bit depth : 8 bits
Scan type : Progressive
Bits/(Pixel*Frame) : 0.092
Stream size : 1.87 GiB (99%)
Color range : Limited
Color primaries : BT.709
Transfer characteristics : BT.709
Matrix coefficients : BT.709

Audio
ID : 2
Format : AAC
Format/Info : Advanced Audio Codec
Mode extension : LC
Codec ID : 40
Duration : 11 min
Bit rate mode : Constant
Bit rate : 126 kbps  
Channel(s) : 2 channels
Channel positions : Front: L R
Sampling rate : 44.1 KHz
Frame rate : 43.066 FPS (1024 spf)
Compression mode : Lossy
Stream size : 10.5 MiB (1%)
Default : Yes
Altternate group : 1

百度云
游客,如果您要查看本帖隐藏内容请回复


发表于 2016-8-13 13:31:57 | 显示全部楼层
支持楼主,感谢分享
发表于 2016-8-19 10:09:51 | 显示全部楼层
d0xed0xed0xe
发表于 2016-8-19 14:46:35 | 显示全部楼层
好的,我来试试。
发表于 2016-8-19 16:42:43 | 显示全部楼层
不错好片,谢谢。
发表于 2016-8-21 09:14:33 | 显示全部楼层
城市风景,感谢分享
发表于 2016-8-21 13:44:27 | 显示全部楼层
沙滩 海浪 美女 楼主好贴
发表于 2016-8-21 21:38:02 | 显示全部楼层
空气真通透啊
发表于 2016-8-26 11:23:30 | 显示全部楼层
太好太好太好太好太好
您需要登录后才可以回帖 登录 | 立即注册 用百度帐号登录

本版积分规则

手机版

轻松易点,迅速到家!

官方微信

扫描二维码,即刻与小易亲密互动,还有劲爆优惠等你来拿!

订阅QQ邮件

第一手促销资讯,尊享邮件特惠商品,优惠不错过!

广告招商QQ:2295479776|小黑屋|手机版|首发之家论坛 |网站地图

GMT+8, 2020-12-1 10:59 , Processed in 0.136619 second(s), 29 queries , XCache On.

Powered by Discuz! X3.4

@ 2001-2013 Comsenz Inc.

快速回复 返回顶部 返回列表