立即注册
 找回密码
 立即注册

扫一扫,访问微社区

用百度帐号登录

只需两步,快速登录

查看: 996|回复: 44

[4K高清短片]中国西安 - 城墙 雁塔[2160P/MP4/530MB]

[复制链接]
发表于 2016-8-11 13:12:23 | 显示全部楼层 |阅读模式
[4K高清短片]中国西安 - 城墙 雁塔[2160P/MP4/530MB]
075206poyjfgyu214u22j5.jpg 075206f3zz50mg308zp3tp.jpg 075207a77s960mj6e966eh.jpg 075207hvlj33li0jbi9jf9.jpg 075208yutsixvvvf5tv8us.jpg 075208l3abrtv4llz7mmmh.jpg 075208b7n69zv9wnfwowjp.jpg 075209lblq55ol1bcb3b3z.jpg 075210gj6eocilzvj27hl2.jpg 075210uit4edd50i6jhooo.jpg 075211j7gqoglan5al3i9o.jpg 075212ap5504lly54tj4de.jpg 075212h9k2zr2jrb9s3f0a.jpg 075213wb1havjuoul2959n.jpg 075213fs0pq640spp9trqr.jpg 075214pww77rm8uware88e.jpg

General
Complete name : Xi'an, China- City Walls & Goose Pagodas in 4K (Ultra HD).mp4
Format : MPEG-4
Format profile : Base Media
Codec ID : dash (isom/iso2/avc1/mp41)
File size : 530 MiB
Duration : 4 min
Overall bit rate : 16.7 Mbps
Writing application : Lavf56.25.101

Video
ID : 1
Format : AVC
Format/Info : Advanced Video Codec
Format profile : High@L5.1
Format settings, CABAC : No
Format settings, ReFrames : 2 frames
Codec ID : avc1
Codec ID/Info : Advanced Video Coding
Duration : 4 min
Bit rate : 16.5 Mbps
Width : 3840 pixels
Height : 2160 pixels
Display aspect ratio : 16:9
Frame rate mode : Constant
Frame rate : 29.970 (30000/1001) FPS
Color space : YUV
Chroma subsampling : 4:2:0
Bit depth : 8 bits
Scan type : Progressive
Bits/(Pixel*Frame) : 0.067
Stream size : 529 MiB (99%)
Color range : Limited
Color primaries : BT.709
Transfer characteristics : BT.709
Matrix coefficients : BT.709

Audio
ID : 2
Format : AAC
Format/Info : Advanced Audio Codec
Mode extension : LC
Codec ID : 40
Duration : 4 min
Bit rate mode : Constant
Bit rate : 126 kbps  
Channel(s) : 2 channels
Channel positions : Front: L R
Sampling rate : 44.1 KHz
Frame rate : 43.066 FPS (1024 spf)
Compression mode : Lossy
Stream size : 4.02 MiB (1%)
Default : Yes
Altternate group : 1

百度云
游客,如果您要查看本帖隐藏内容请回复



发表于 2016-8-11 18:24:43 | 显示全部楼层
看看看看看看看看看看看看看看
发表于 2016-8-12 07:25:09 | 显示全部楼层
123123123123123123123
发表于 2016-8-13 13:30:12 | 显示全部楼层
感谢分享,支持楼主
发表于 2016-8-13 15:17:32 | 显示全部楼层
还是古城有味道
谢谢分享

发表于 2016-8-13 17:49:21 | 显示全部楼层
西安城墙雁塔4k
发表于 2016-8-13 21:02:18 | 显示全部楼层
感谢分享,支持楼主
发表于 2016-8-13 21:13:32 | 显示全部楼层
啊啊啊啊啊啊啊啊啊啊啊啊啊啊
发表于 2016-8-13 21:41:52 | 显示全部楼层
[4K高清短片]中国西安 - 城墙 雁塔[2160P/MP4/530MB]
您需要登录后才可以回帖 登录 | 立即注册 用百度帐号登录

本版积分规则

手机版

轻松易点,迅速到家!

官方微信

扫描二维码,即刻与小易亲密互动,还有劲爆优惠等你来拿!

订阅QQ邮件

第一手促销资讯,尊享邮件特惠商品,优惠不错过!

广告招商QQ:2295479776|小黑屋|手机版|首发之家论坛 |网站地图

GMT+8, 2020-12-1 11:03 , Processed in 0.123027 second(s), 29 queries , XCache On.

Powered by Discuz! X3.4

@ 2001-2013 Comsenz Inc.

快速回复 返回顶部 返回列表