立即注册
 找回密码
 立即注册

扫一扫,访问微社区

用百度帐号登录

只需两步,快速登录

查看: 1435|回复: 67

[4K IMAX 纪录片] 生命的海洋 The Living Sea 1995 [2160P/MKV/9.75GB]

  [复制链接]
发表于 2016-8-6 16:19:56 | 显示全部楼层 |阅读模式
072504k38id7lim8mlmiem.jpg

译  名:生命的海洋

片  名:The Living Sea

年  代:1995

国  家:美国

类  别:纪录片 / 短片

语  言:英语

音        频:AC-3 2.0

视频尺寸:3840 x 2160

文件大小:9.75 GiB

上映日期:1995-02

IMDb评分:7.2/10 from 452 users

IMDb链接:http://www.imdb.com/title/tt0113676/

片  长:39 分钟

导  演:Greg MacGilliVRay

编       剧:Roger Holzberg

                  Tim Cahill

主  演:Meryl Streep  梅丽尔·斯特里普 (旁述)

                  Judith Connor...Herself (Monterey)(as Dr. Judith Connor)

                  William Hamner...Himself (Palau)(as Dr. William Hamner)

                  Rainos M. Hayes...Himself (Hawaii)

                  Steven K. Katona...Himself (Maine)

                  Richard Marsh...Himself (Hawaii)

                  Laura Martin...Herself (Palau researcher)

                  Stephanie K. Martin...Herself (Maine)

                  James A.R. McFarlane...Himself (Monterey)

                  Bruce Robison...Himself (deep ocean research, Monterey)

                  Jennifer Rock...Herself (Maine)

                  Marty Thomas......Himself (Hawaii)

                  Francis Toribiong......Himself (Palau native)

简介:

《生命的海洋》是IMAX 1995年二月上映的反映大海的一部纪录片,它在呈现给我们海底美丽与神奇的画面以外更加侧重表现了人类与大海生生相息的关系,全片仅39分钟,但包括了很多内容:有介绍海底风光的绚丽画面、也有与大海拚搏人们的激情展现、还有研究大海科学家们的沉思,当然也少不了夏日里面海边俊男美女。在《海中颜面博览会》中,我们欣赏到了海底的奇幻世界,而在这部的反映大海的影片中,我们主要看到的是人类是如何与大海息息相关,人类是如何在大海的怀抱中生存,我们会看到岸边那白色的帆船随着日出划向大海的深处,伴着日落静静的停靠在岸边,我们还会看到原来依靠大海生存的土著部落现在是如何依靠科技设备带着下一代去领略大海的无穷奥秘,我们更会看到缤纷夏日中,不同肤色不通种族的人们尽情享受大海带来的快乐。也正因为如此,本片在观众中得到的评价是截然相反的,支持的人们认为这才是真正的大海,这才真正表现了人与大海的关系,而反对的人们则要求更多的精美的海底画面。而导演Greg MacGillivray的拍摄本片的意图恰恰是着重表现人与大海的关系,正如片中的解说大海就是生命之源,本片主旨不在美丽的画面而在思考生命与生命之源的关系。

General
Unique ID : 171991575221840361921314720898810914194(0x81645F5B84AA0C1AB969A231E7682592)
Complete name :IMAX.The.Living.Sea.1995.2160p.Amazon.WEBRip.DD2.0.x264-TrollUHD.mkv
Format : Matroska
Format version : Version 4 / Version 2
File size : 9.75 GiB
Duration : 39 min 23 s
Overall bit rate : 35.4 Mbps
Encoded date : UTC 2016-04-20 21:40:24
Writing application : mkvmerge v8.3.0 ('Over the Horizon') 64bit  
Writing library : libebml v1.3.1 + libmatroska v1.4.2

Video
ID : 1
Format : AVC
Format/Info : Advanced Video Codec
Format profile : High@L5.1
Format settings, CABAC : Yes
Format settings, ReFrames : 5 frames
Codec ID : V_MPEG4/ISO/AVC
Duration : 39 min 23 s
Bit rate : 34.8 Mbps
Width : 3840 pixels
Height : 2160 pixels
Display aspect ratio : 16:9
Frame rate mode : Constant
Frame rate : 23.976 fps (24000/1001) fps
Color space : YUV
Chroma subsampling : 4:2:0
Bit depth : 8 bits
Scan type : Progressive
Bits/(Pixel*Frame) : 0.175
Stream size : 9.58 GiB (98%)
Writing library : x264 core 148 r2638 7599210
Encoding settings : cabac=1 / ref=5 / deblock=1:-1:-1 / analyse=0x3:0x133 / me=umh / subme=10 / psy=1 /  psy_rd=1.00:0.15 / mixed_ref=1 / me_range=48 / chroma_me=1 / trellis=2 / 8x8dct=1 / cqm=0 / deadzone=21,11 / fast_pskip=1 / chroma_qp_offset=-3 / threads=1
Default : Yes
Forced : No

Audio
ID : 2
Format : AC-3
Format/Info : Audio Coding 3
Mode extension : CM (complete main)
Format settings, Endianness : Big
Codec ID : A_AC3
Duration : 39 min 23 s
Bit rate mode : Constant  
Bit rate : 640 Kbps  
Channel(s) : 2 channels
Channel positions : Front: L R
Sampling rate : 48.0 KHz
Frame rate : 31.250 FPS (1536 spf)
Compression mode : Lossy
Stream size : 180 MiB (2%)
Language : English
Default : Yes
Forced : No

072504g0qsu7wl3bqtqbs9.jpg 072505ql5bnjz3cl4pl1pg.jpg 072505tm48bdvb8ludv8ii.jpg 072506sm52h6iz2mz120ko.jpg 072506h25xijzoiikzf53v.jpg 072507f8cfccdzi5ro3ji7.jpg 072507swj9qjbwqhuelb9u.jpg 072508w8txo8tl9llp1l6b.jpg 072508pbzapc0c4p8hpyhh.jpg 072508flg76cfhffellrgv.jpg 072509ue07jo4j009tpoj7.jpg 072509hvma94wccypx3zz9.jpg






游客,如果您要查看本帖隐藏内容请回复
发表于 2016-8-6 21:06:09 | 显示全部楼层
谢谢楼主分享

发表于 2016-8-6 21:44:47 | 显示全部楼层
谢谢分享,楼主!
发表于 2016-8-7 09:22:58 | 显示全部楼层
[4K IMAX 纪录片] 生命的海洋 The Living Sea 1995 [2160P/MKV/9.75GB] [修改]
发表于 2016-8-7 09:27:58 | 显示全部楼层
阿娇立法将辣椒放辣椒法律纠纷拉近了
发表于 2016-8-7 11:50:57 | 显示全部楼层
谢谢LZ分享!!!
发表于 2016-8-7 14:55:36 | 显示全部楼层
感谢楼主分享。。。。
发表于 2016-8-9 00:53:22 | 显示全部楼层
快抢着下载喽
发表于 2016-8-9 12:53:22 | 显示全部楼层
正需要,支持楼主大人了!
您需要登录后才可以回帖 登录 | 立即注册 用百度帐号登录

本版积分规则

手机版

轻松易点,迅速到家!

官方微信

扫描二维码,即刻与小易亲密互动,还有劲爆优惠等你来拿!

订阅QQ邮件

第一手促销资讯,尊享邮件特惠商品,优惠不错过!

广告招商QQ:2295479776|小黑屋|手机版|首发之家论坛 |网站地图

GMT+8, 2020-3-29 20:16 , Processed in 0.195783 second(s), 28 queries , XCache On.

Powered by Discuz! X3.4

@ 2001-2013 Comsenz Inc.

快速回复 返回顶部 返回列表