立即注册
 找回密码
 立即注册

扫一扫,访问微社区

用百度帐号登录

只需两步,快速登录

查看: 1452|回复: 60

[动漫] 2016欧美动画《疯狂动物城/优兽大都会(港)/动物方城市(台)/动物乌托邦 》[大陆公映版/普通话/内嵌简体中文字幕] Zootopia.2016.R6.10

  [复制链接]
发表于 2016-5-17 23:32:06 | 显示全部楼层 |阅读模式
本帖最后由 1101314161 于 2016-5-17 23:34 编辑

6e477bdb1005418bs.jpg
◎译  名 zootopia
◎片  名 疯狂动物城/优兽大都会(港)/动物方城市(台)/动物乌托邦
◎年  代 2016
◎国  家 美国
◎类  别 动画/冒险/动作
◎语  言  国语
◎字  幕  简体中文
◎上映日期 2016-03-04(中国大陆/美国) / 2016-02-17(法国)
◎IMDB评分 8.4/10 60,770users
◎豆瓣评分 9.3/10 275948人评价
◎格       式   x264 + AAC
◎尺  寸   1920 x 800
◎大  小 1CD 2.30G
◎片  长 104分钟
◎导  演 拜伦·霍华德 Byron Howard/瑞奇·摩尔 Rich Moore/杰拉德·布什 Jared Bush
◎主  演 金妮弗·古德温 Ginnifer Goodwin
                      杰森·贝特曼 Jason Bateman
                      夏奇拉 Shakira
                      伊德里斯·艾尔巴 Idris Elba
                      J·K·西蒙斯 J.K. Simmons
                      艾伦·图代克 Alan Tudyk
                      珍妮·斯蕾特 Jenny Slate
                      邦尼·亨特 Bonnie Hunt
                      凯蒂·洛斯 Katie Lowes
                      奥克塔维亚·斯宾瑟 Octavia Spencer
                      约翰·迪·玛吉欧 John Di Maggio
                      Tommy 'Tiny' Lister
                      汤米·钟 Tommy Chong
                      内特·托伦斯 Nate Torrence
                      莫里斯·拉马奇 Maurice LaMarche

◎简  介


       故事发生在一个所有哺乳类动物和谐共存的美好世界中,兔子朱迪(金妮弗·古德温 Ginnifer Goodwin 配音)从小就梦想着能够成为一名惩恶扬善的刑警,凭借着智慧和努力,朱迪成功的从警校中毕业进入了疯狂动物城警察局,殊不知这里是大型肉食类动物的领地,作为第一只,也是唯一的小型食草类动物,朱迪会遇到怎样的故事呢?
    近日里,城中接连发生动物失踪案件,就在全部警员都致力于调查案件真相之时,朱迪却被局长(伊德瑞斯·艾尔巴 Idris Elba 配音)发配成为了一名无足轻重的交警。某日,正在执勤的兔子遇见了名为尼克(杰森·贝特曼 Jason Bateman 配音)的狐狸,两人不打不相识,之后又误打误撞的接受了寻找失踪的水獭先生的任务,如果不能在两天之内找到水獭先生,朱迪就必须自愿离开警局。朱迪找到了尼克,两人联手揭露了一个隐藏在疯狂动物城之中的惊天秘密。


  • General
  • Format : MPEG-4
  • Format profile : Base Media
  • Codec ID : isom
  • File size : 2.30 GiB
  • Duration : 1h 44mn
  • Overall bit rate mode : Variable
  • Overall bit rate : 3 151 Kbps
  • Writing application : Lavf57.25.100

  • Video
  • ID : 1
  • Format : AVC
  • Format/Info : Advanced Video Codec
  • Format profile : High@L4
  • Format settings, CABAC : Yes
  • Format settings, ReFrames : 4 frames
  • Codec ID : avc1
  • Codec ID/Info : Advanced Video Coding
  • Duration : 1h 44mn
  • Bit rate : 3 016 Kbps
  • Width : 1 920 pixels
  • Height : 800 pixels
  • Display aspect ratio : 2.40:1
  • Frame rate mode : Variable
  • Frame rate : 24.903 fps
  • Original frame rate : 25.000 fps
  • Minimum frame rate : 8.329 fps
  • Maximum frame rate : 25.112 fps
  • Color space : YUV
  • Chroma subsampling : 4:2:0
  • Bit depth : 8 bits
  • Scan type : Progressive
  • Bits/(Pixel*Frame) : 0.079
  • Stream size : 2.20 GiB (96%)
  • Writing library : Provided by letv cloud :: H.264/MPEG-4 AVC codec -V 1.6.09-20151125
  • Color range : Limited
  • Color primaries : BT.709
  • Transfer characteristics : BT.709
  • Matrix coefficients : BT.709

  • Audio
  • ID : 2
  • Format : AAC
  • Format/Info : Advanced Audio Codec
  • Format profile : LC
  • Codec ID : 40
  • Duration : 1h 44mn
  • Bit rate mode : Variable
  • Bit rate : 128 Kbps
  • Maximum bit rate : 130 Kbps
  • Channel(s) : 2 channels
  • Channel positions : Front: L R
  • Sampling rate : 44.1 KHz
  • Compression mode : Lossy
  • Stream size : 95.1 MiB (4%)



g0Il9oi.jpg
5gRGlQ5.jpg
WL8pw67.jpg
i09FuN4.jpg
LWy4b7G.jpg
fzhRaEN.jpg
C82sSnw.jpg
c85QQKN.jpg



游客,如果您要查看本帖隐藏内容请回复
发表于 2016-5-17 23:44:01 | 显示全部楼层
啥也不说了,感谢楼主分享哇!
发表于 2016-5-17 23:50:15 | 显示全部楼层
RE: 2016欧美动画《疯狂动物城/优兽大都会(港)/动物方城市(台)/动物乌托邦 》[大陆公映版/普通话/内嵌简体中文字幕] Zootopia.2016.R6.1080p.WEB-DL.x264.AAC-SeeHD 2.30 GiB [修改]
发表于 2016-5-17 23:54:08 | 显示全部楼层
玩儿玩儿玩儿
发表于 2016-5-17 23:57:54 | 显示全部楼层
楼主辛苦,谢谢
发表于 2016-5-18 00:05:31 | 显示全部楼层
哦啊啊的的啊额
发表于 2016-5-18 00:08:33 | 显示全部楼层
好东西要大家一起看的。
发表于 2016-5-18 00:12:51 | 显示全部楼层
啥也不说了,感谢楼主分享哇!
发表于 2016-5-18 00:24:07 | 显示全部楼层
反反复复反反复复反反复复吩咐
发表于 2016-5-18 01:31:09 | 显示全部楼层
这个必须支持
期待已久的好东西啊
剧情画面都很带感
真心不错的好片
感谢分享
您需要登录后才可以回帖 登录 | 立即注册 用百度帐号登录

本版积分规则

手机版

轻松易点,迅速到家!

官方微信

扫描二维码,即刻与小易亲密互动,还有劲爆优惠等你来拿!

订阅QQ邮件

第一手促销资讯,尊享邮件特惠商品,优惠不错过!

广告招商QQ:2295479776|小黑屋|手机版|首发之家论坛 |网站地图

GMT+8, 2020-9-26 06:56 , Processed in 0.109782 second(s), 25 queries , XCache On.

Powered by Discuz! X3.4

@ 2001-2013 Comsenz Inc.

快速回复 返回顶部 返回列表